<?xml version="1.0" standalone="no"?>
<!DOCTYPE svg PUBLIC "-//W3C//DTD SVG 1.1//EN" "http://www.w3.org/Graphics/SVG/1.1/DTD/svg11.dtd" >
<svg xmlns="http://www.w3.org/2000/svg" xmlns:xlink="http://www.w3.org/1999/xlink" version="1.1">
<metadata>
Created by FontForge 20201107 at Wed Apr 26 11:17:09 2023
 By 
Copyright 2019 The Darker Grotesque Project Authors (https://github.com/bettergui/DarkerGrotesque)
</metadata>
<defs>
<font id="DarkerGrotesque-Light" horiz-adv-x="0" >
  <font-face 
    font-family="Darker Grotesque Light"
    font-weight="300"
    font-stretch="normal"
    units-per-em="1000"
    panose-1="0 0 0 0 0 0 0 0 0 0"
    ascent="800"
    descent="-200"
    x-height="404"
    cap-height="563"
    bbox="-120 -199 1619 851"
    underline-thickness="50"
    underline-position="-125"
    unicode-range="U+000D-240D"
  />
<missing-glyph horiz-adv-x="530" 
d="M70 -120v723h390v-723h-390zM96 -96h338v675h-338v-675z" />
    <glyph glyph-name="w_w_w.liga" unicode="www" horiz-adv-x="1637" 
d="M123 0l-123 392v12h24l116 -380h2l122 380h26l124 -380h2l113 380h24v-12l-119 -392h-41l-115 356h-2l-114 -356h-39zM656 0l-123 392v12h24l116 -380h2l122 380h26l124 -380h2l113 380h24v-12l-119 -392h-41l-115 356h-2l-114 -356h-39zM1189 0l-123 392v12h24l116 -380
h2l122 380h26l124 -380h2l113 380h24v-12l-119 -392h-41l-115 356h-2l-114 -356h-39z" />
    <glyph glyph-name=".notdef" horiz-adv-x="530" 
d="M70 -120v723h390v-723h-390zM96 -96h338v675h-338v-675z" />
    <glyph glyph-name=".null" 
 />
    <glyph glyph-name="nonmarkingreturn" horiz-adv-x="333" 
 />
    <glyph glyph-name="CR" unicode="&#xd;" horiz-adv-x="600" 
 />
    <glyph glyph-name="space" unicode=" " horiz-adv-x="255" 
 />
    <glyph glyph-name="exclam" unicode="!" horiz-adv-x="155" 
d="M85 -9q-12 0 -16 7.5t-4 18.5q0 10 4 17t16 7t16 -7t4 -17q0 -11 -4 -18.5t-16 -7.5zM75 110q-2 119 -5 199.5t-5 131t-1.5 77t5.5 36t16 9.5q9 0 13.5 -9.5t5 -36t-1 -77t-4 -131t-3.5 -199.5l-4 0.5t-6 0.5q-4 0 -7 -0.5z" />
    <glyph glyph-name="quotedbl" unicode="&#x22;" horiz-adv-x="214" 
d="M33 432v30h11q23 0 26.5 14t3.5 29q-16 -4 -25.5 3.5t-9.5 26.5q0 11 5 19.5t21 8.5q17 0 21.5 -9.5t4.5 -29.5q0 -31 -3.5 -51.5t-13 -30.5t-27.5 -10h-14zM126 432v30h11q23 0 26.5 14t3.5 29q-16 -4 -25.5 3.5t-9.5 26.5q0 11 5 19.5t21 8.5q17 0 21.5 -9.5t4.5 -29.5
q0 -31 -3.5 -51.5t-13 -30.5t-27.5 -10h-14z" />
    <glyph glyph-name="numbersign" unicode="#" horiz-adv-x="693" 
d="M122 0l146 377l65 186h27l-137 -352l-74 -211h-27zM40 186v25h556v-25h-556zM323 0l147 377l64 186h27l-137 -352l-74 -211h-27zM95 377v25h553v-25h-553z" />
    <glyph glyph-name="dollar" unicode="$" horiz-adv-x="519" 
d="M276 -14q-57 0 -109.5 18.5t-85.5 58.5t-35 103h27q0 -2 1.5 -18.5t10.5 -39.5t30.5 -45t60.5 -37t101 -15q60 0 94.5 15t51.5 36t22 40t5 26q1 42 -19 68t-54.5 41.5t-75.5 26t-82 22t-75.5 28.5t-54.5 46t-19 75q2 43 30 74t74 47.5t99 16.5q56 0 101 -20t71 -58.5
t24 -96.5h-27q2 46 -16 75t-45.5 45.5t-57 23t-51.5 6.5q-76 0 -124.5 -32.5t-50.5 -80.5q-1 -41 19 -66t54 -40t75 -25t81.5 -21.5t74.5 -29t54 -47.5t19 -78q-1 -45 -28.5 -76.5t-71.5 -48.5t-98 -17zM264 -110v110h25v-110h-25zM264 563v110h25v-110h-25z" />
    <glyph glyph-name="percent" unicode="%" horiz-adv-x="541" 
d="M78 0l-20 15l209 277l189 270l20 -14l-197 -264zM420 -10q-47 0 -69 33.5t-22 90.5q0 56 21.5 90t69.5 34t69.5 -34t21.5 -90q0 -55 -21.5 -89.5t-69.5 -34.5zM420 9q38 0 53.5 29.5t15.5 74.5q0 47 -15.5 76t-53.5 29q-37 0 -53 -28t-16 -77q0 -45 16 -74.5t53 -29.5z
M121 325q-47 0 -69 33.5t-22 90.5q0 56 21.5 90t69.5 34t69.5 -34t21.5 -90q0 -55 -21.5 -89.5t-69.5 -34.5zM121 344q38 0 53.5 29.5t15.5 74.5q0 47 -15.5 76t-53.5 29q-37 0 -53 -28t-16 -77q0 -45 16 -74.5t53 -29.5z" />
    <glyph glyph-name="ampersand" unicode="&#x26;" horiz-adv-x="624" 
d="M594 -1q-38 14 -70 33.5t-76 49.5q-36 -44 -86 -66.5t-103.5 -25t-99.5 15.5t-75 55t-29 92q0 33 11.5 58t31.5 45t45 36t52 30q-16 23 -29 46t-21 46t-8 44q0 38 18.5 63t47.5 37.5t62 12.5t62 -11.5t47.5 -34.5t18.5 -57q0 -31 -20 -57t-47.5 -46t-53.5 -33.5
t-38 -19.5q22 -29 58.5 -65t76.5 -70.5t74 -57.5q17 27 28 59t15 65t-0.5 62t-19.5 49l21 18q14 -19 20.5 -44.5t6.5 -55t-6.5 -60t-17.5 -58.5t-26 -50q42 -29 73 -47.5t67 -32.5zM426 97q-37 27 -78 64t-78 76t-62 70q-50 -25 -87 -60t-37 -91q0 -48 25 -79.5t65.5 -46.5
t87 -13t90 22t74.5 58zM220 325l15 6.5t36.5 18.5t43.5 29.5t37 39t15 46.5q0 33 -20.5 52t-51 25t-61 -2t-51 -29t-20.5 -56q0 -25 15 -59t42 -71z" />
    <glyph glyph-name="quotesingle" unicode="'" horiz-adv-x="124" 
d="M33 432v30h11q23 0 26.5 14t3.5 29q-16 -4 -25.5 3.5t-9.5 26.5q0 11 5 19.5t21 8.5q17 0 21.5 -9.5t4.5 -29.5q0 -31 -3.5 -51.5t-13 -30.5t-27.5 -10h-14z" />
    <glyph glyph-name="parenleft" unicode="(" horiz-adv-x="255" 
d="M232 -199l-19 15.5t-46.5 47t-55.5 79t-47 112t-19 145.5q0 82 19 146.5t47 113t55.5 80t46.5 47.5l19 16l18 -22q-3 -3 -22.5 -17.5t-46.5 -43.5t-53 -73t-43.5 -105.5t-17.5 -141.5q0 -81 18.5 -143t45.5 -106t54.5 -72t46 -41l18.5 -13z" />
    <glyph glyph-name="parenright" unicode=")" horiz-adv-x="245" 
d="M13 -199l-18 24l18.5 13t46 41t54.5 72t45.5 106t18.5 143q0 80 -17.5 141.5t-43.5 105.5t-53 73t-46.5 43.5t-22.5 17.5l18 22l19 -16t47 -47.5t55.5 -80t46.5 -113t19 -146.5q0 -81 -19 -145.5t-46.5 -112t-55.5 -79t-47 -47z" />
    <glyph glyph-name="asterisk" unicode="*" horiz-adv-x="373" 
d="M348 436l-150 -42l97 -118l-25 -18l-84 126l-84 -126l-24 18l97 118l-150 42l11 28l142 -56l-7 155h31l-7 -155l143 56z" />
    <glyph glyph-name="plus" unicode="+" horiz-adv-x="350" 
d="M161 91v260h26v-260h-26zM45 210v26h260v-26h-260z" />
    <glyph glyph-name="comma" unicode="," horiz-adv-x="148" 
d="M45 -74v30h11q23 0 26.5 14t3.5 29q-16 -4 -25.5 3.5t-9.5 26.5q0 11 5 19.5t21 8.5q17 0 21.5 -9.5t4.5 -29.5q0 -31 -3.5 -51.5t-13 -30.5t-27.5 -10h-14z" />
    <glyph glyph-name="hyphen" unicode="-" horiz-adv-x="317" 
d="M40 211v26h222v-26h-222z" />
    <glyph glyph-name="period" unicode="." horiz-adv-x="138" 
d="M59 0q-14 0 -19 8.5t-5 20.5t5 21t19 9t19 -9t5 -21t-5 -20.5t-19 -8.5z" />
    <glyph glyph-name="slash" unicode="/" horiz-adv-x="319" 
d="M25 0l254 563h30l-254 -563h-30z" />
    <glyph glyph-name="zero" unicode="0" horiz-adv-x="482" 
d="M241 -14q-112 0 -164 79.5t-52 214.5q0 89 22 154.5t70 102t124 36.5q75 0 123 -36t70.5 -102t22.5 -155q0 -87 -22.5 -153.5t-70.5 -103.5t-123 -37zM241 10q98 0 143.5 73.5t45.5 196.5q0 82 -19.5 142t-61 93.5t-108.5 33.5q-97 0 -143 -70.5t-46 -198.5
q0 -81 19.5 -142t61 -94.5t108.5 -33.5z" />
    <glyph glyph-name="one" unicode="1" horiz-adv-x="283" 
d="M248 25v-25h-193v25h86v468q-12 -25 -30 -41t-37 -24.5t-34 -11.5t-20 -3v24q5 0 24 6t41.5 20t39 38.5t16.5 61.5h24v-538h83z" />
    <glyph glyph-name="two" unicode="2" horiz-adv-x="464" 
d="M35 0v22q1 1 20.5 16t51.5 41t69.5 59t74.5 69t66.5 71.5t45.5 66.5q26 54 15.5 98.5t-50 71t-101.5 26.5q-64 -1 -105 -36t-45 -101h-24q3 50 25 85.5t61 54.5t91 19q54 0 93.5 -18.5t60.5 -51t22.5 -73.5t-21.5 -86q-16 -31 -51.5 -71t-78.5 -80.5t-83.5 -75t-69 -57
t-33.5 -25.5h350v-25h-384z" />
    <glyph glyph-name="three" unicode="3" horiz-adv-x="467" 
d="M234 -10q-46 0 -92.5 20t-78 60t-33.5 101h25q4 -55 31.5 -89.5t67.5 -50.5t80 -16q47 0 87 16t64.5 46.5t24.5 73.5q0 39 -15.5 64.5t-38 40t-44.5 20t-35 5.5h-94v19h94q39 0 64.5 14.5t38 39.5t12.5 55q0 67 -43.5 103.5t-116.5 36.5q-46 0 -76.5 -15t-49.5 -37
t-28 -45t-11 -40h-25q1 13 7.5 33t20 42t35 41.5t53 32t74.5 12.5q83 0 135 -43.5t52 -120.5q0 -49 -25.5 -76t-63.5 -42q41 -14 73 -49t32 -90q0 -48 -26.5 -84.5t-72 -57t-102.5 -20.5z" />
    <glyph glyph-name="four" unicode="4" horiz-adv-x="471" 
d="M20 128v25q45 22 88 66t78 101t56 120t22 123h26q0 -80 -32.5 -157.5t-85.5 -143t-115 -109.5h384v-25h-421zM329 0v281h26v-281h-26z" />
    <glyph glyph-name="five" unicode="5" horiz-adv-x="493" 
d="M245 -10q-46 0 -86 14t-69 44.5t-44 79.5h28q0 -2 6.5 -19.5t24.5 -39t51.5 -38t88.5 -16.5q60 0 100 23.5t61.5 60.5t23.5 77q3 43 -16 82t-58.5 64.5t-100.5 25.5q-46 0 -78 -11t-51.5 -25.5t-28.5 -26t-9 -12.5l-21 9l27 281h333v-26h-308l-24 -227l9 9.5t28 22
t49.5 22t73.5 9.5q70 0 115 -29t66 -74.5t18 -94.5q-3 -47 -27.5 -89.5t-70 -69t-111.5 -26.5z" />
    <glyph glyph-name="six" unicode="6" horiz-adv-x="507" 
d="M265 -10q-79 0 -127 37.5t-69 98t-21 128.5q0 58 14 114.5t43.5 103t76 74t111.5 27.5q33 0 57.5 -7.5t42.5 -18.5t29 -22.5t16 -19l5 -7.5l-24 -12l-13 15.5t-40.5 31t-72.5 15.5q-65 0 -110.5 -31.5t-72 -84t-34 -116.5t2.5 -130q3 30 17 63t40 61.5t64.5 45.5t90.5 14
q62 -1 102 -29t58 -71.5t15.5 -91.5t-26 -91t-67.5 -70t-108 -27zM265 14q55 0 93.5 23t59.5 59.5t24 78t-12.5 79t-51 62.5t-91.5 28q-67 3 -111.5 -26.5t-66.5 -75t-22 -91.5q10 -40 33.5 -71t60 -48.5t84.5 -17.5z" />
    <glyph glyph-name="seven" unicode="7" horiz-adv-x="438" 
d="M131 0q0 116 28.5 210t82.5 174.5t128 154.5h-335v24h368v-22q-23 -22 -54.5 -55t-65 -78t-62 -104.5t-46 -134.5t-17.5 -169h-27z" />
    <glyph glyph-name="eight" unicode="8" horiz-adv-x="519" 
d="M256 -10q-61 0 -110 18t-77.5 53.5t-28.5 88.5q0 54 36 94t94 54q-29 8 -48 22t-29.5 31.5t-15 36t-4.5 34.5q0 44 24 78t65.5 53.5t93.5 19.5q55 0 96 -20t64.5 -54t23.5 -77q0 -16 -4 -34.5t-14.5 -36t-29.5 -31.5t-49 -22q59 -15 95 -54t36 -94q0 -54 -29 -89.5
t-78 -53t-111 -17.5zM256 17q89 0 140 38.5t51 99.5q0 65 -51 99t-140 34q-88 0 -138.5 -34t-50.5 -99q0 -61 50.5 -99.5t138.5 -38.5zM256 307q70 0 114 25.5t44 84.5t-45 94.5t-113 35.5q-70 0 -114 -36t-44 -94q0 -41 22 -65t58 -34.5t78 -10.5z" />
    <glyph glyph-name="nine" unicode="9" horiz-adv-x="512" 
d="M253 -10q-41 0 -71.5 9t-52.5 22.5t-36 27t-20.5 23t-7.5 10.5l22 11q0 -1 9.5 -13t29 -27.5t51 -27.5t76.5 -12q65 0 104.5 29t58.5 78.5t24 111.5t2 129q-4 -30 -19 -60.5t-40 -55.5t-59 -40.5t-77 -15.5q-66 0 -110 27t-65.5 69.5t-21 90.5t23.5 90.5t68.5 69.5
t112.5 27q58 0 100.5 -23t68.5 -63.5t36.5 -95.5t4.5 -119q-5 -60 -17 -110t-35.5 -86.5t-62.5 -56t-97 -19.5zM248 213q83 0 129 50t59 124q-18 71 -63.5 111.5t-117.5 40.5q-59 0 -98.5 -23.5t-59.5 -60.5t-20.5 -79t18.5 -79t57 -60.5t96 -23.5z" />
    <glyph glyph-name="colon" unicode=":" horiz-adv-x="158" 
d="M78 57q-13 0 -18 8t-5 20q0 11 5 20t18 9q14 0 18.5 -9t4.5 -20q0 -12 -4.5 -20t-18.5 -8zM78 293q-13 0 -18 8t-5 20q0 11 5 20t18 9q14 0 18.5 -9t4.5 -20q0 -12 -4.5 -20t-18.5 -8z" />
    <glyph glyph-name="semicolon" unicode=";" horiz-adv-x="143" 
d="M72 345q-13 0 -18 8t-5 20q0 11 5 20t18 9q14 0 18.5 -9t4.5 -20q0 -12 -4.5 -20t-18.5 -8zM40 -74v30h11q23 0 26.5 14t3.5 29q-16 -4 -25.5 3.5t-9.5 26.5q0 11 5 19.5t21 8.5q17 0 21.5 -9.5t4.5 -29.5q0 -31 -3.5 -51.5t-13 -30.5t-27.5 -10h-14z" />
    <glyph glyph-name="less" unicode="&#x3c;" horiz-adv-x="350" 
d="M323 363v-30l-258 -110l258 -110v-32l-296 142z" />
    <glyph glyph-name="equal" unicode="=" horiz-adv-x="350" 
d="M44 265v24h262v-24h-262zM44 157v24h262v-24h-262z" />
    <glyph glyph-name="greater" unicode="&#x3e;" horiz-adv-x="350" 
d="M27 363l296 -140l-296 -142v32l258 110l-258 110v30z" />
    <glyph glyph-name="question" unicode="?" horiz-adv-x="424" 
d="M217 115h-22q1 46 18.5 76.5t42.5 53t50 44t42 48.5t17 67q0 62 -41.5 98.5t-105.5 36.5q-37 0 -65.5 -12t-47.5 -33.5t-28.5 -50.5t-9.5 -63h-27q0 40 12 73.5t35 58.5t56 38.5t75 13.5q46 0 85 -19t62.5 -54.5t23.5 -86.5q0 -45 -17 -74t-42 -50.5t-50.5 -42.5
t-43 -49.5t-19.5 -72.5zM208 -9q-12 0 -15.5 7.5t-3.5 18.5q0 10 3.5 17t15.5 7t15.5 -7t3.5 -17q0 -11 -3.5 -18.5t-15.5 -7.5z" />
    <glyph glyph-name="at" unicode="@" horiz-adv-x="673" 
d="M334 -116q-61 0 -113 18.5t-91.5 54t-61.5 88t-22 119.5q0 71 23.5 129.5t64.5 101.5t95.5 66t117.5 23q58 0 108 -17.5t88 -50.5t59 -78t21 -99q0 -53 -18.5 -102t-53.5 -80.5t-83 -31.5q-26 0 -39.5 15.5t-13.5 41.5q-2 23 5.5 50t11.5 49l16 135h23l-35 -219
q-4 -24 5 -39t30 -15q40 0 68.5 27.5t44 71t15.5 90.5q0 71 -34 122.5t-91.5 79t-127.5 27.5q-78 0 -140.5 -39t-98.5 -105t-36 -148q0 -86 35 -143.5t95 -86.5t134 -29q47 0 96 13t96 38l13 -21q-50 -28 -103 -42t-103 -14zM304 30q-52 0 -80 34t-28 87q0 44 18.5 84.5
t51.5 67t77 26.5q53 0 80.5 -32.5t27.5 -83.5q0 -43 -17 -85.5t-50 -70t-80 -27.5zM305 49q50 0 78 27t39.5 67t11.5 77q0 41 -20 65t-67 24q-41 0 -70.5 -23t-45.5 -59.5t-16 -76.5q0 -45 22.5 -73t67.5 -28z" />
    <glyph glyph-name="A" unicode="A" horiz-adv-x="516" 
d="M20 0l216 563h44l218 -563h-28l-211 550l-213 -550h-26zM115 194l11 27h265l11 -27h-287z" />
    <glyph glyph-name="B" unicode="B" horiz-adv-x="513" 
d="M65 0v563h183q34 0 65 -3.5t57 -13t45 -26.5t29.5 -43t10.5 -64q0 -32 -12 -60t-44 -44.5t-92 -17.5v-3q70 0 107 -20t50.5 -52.5t13.5 -70.5q0 -37 -11.5 -62.5t-32.5 -42t-48 -25t-58.5 -12t-63.5 -3.5h-199zM92 25h172q53 0 95 8.5t66.5 34.5t24.5 77q0 55 -27 83
t-73 38.5t-103 10.5h-155v-252zM92 303h155q57 0 97 7.5t61 31t21 71.5q0 57 -24.5 83t-65 33.5t-88.5 7.5h-156v-234z" />
    <glyph glyph-name="C" unicode="C" horiz-adv-x="590" 
d="M297 -10q-76 0 -136.5 33t-95.5 98t-35 161q0 98 34 162.5t95.5 96.5t141.5 32q62 0 112 -22.5t84.5 -67.5t47.5 -113h-28q-11 57 -40 97t-73.5 61t-102.5 21q-111 0 -177.5 -68.5t-66.5 -198.5q0 -133 65.5 -200.5t174.5 -67.5q64 0 110.5 21.5t75 61t38.5 93.5h29
q-12 -66 -46 -110.5t-86.5 -67t-120.5 -22.5z" />
    <glyph glyph-name="D" unicode="D" horiz-adv-x="569" 
d="M97 25v513h116q90 0 157 -27.5t104 -84t37 -144.5q0 -79 -21 -129.5t-60.5 -78.5t-94.5 -38.5t-122 -10.5h-39.5h-76.5zM539 282q0 94 -41 156t-114 93.5t-171 31.5h-45.5h-97.5v-563h95h48q98 0 171 24t114 85.5t41 172.5z" />
    <glyph glyph-name="E" unicode="E" horiz-adv-x="457" 
d="M60 0v563h353v-26h-326v-239h265v-26h-265v-247h335v-25h-362z" />
    <glyph glyph-name="F" unicode="F" horiz-adv-x="483" 
d="M102 0h-27v563h378v-26h-351v-221h283v-26h-283v-290z" />
    <glyph glyph-name="G" unicode="G" horiz-adv-x="596" 
d="M291 -14q-80 0 -138.5 35t-90.5 101t-32 157q0 92 32 158t92.5 101t143.5 35q98 0 163.5 -49t81.5 -144h-25q-12 57 -41 94t-73.5 55.5t-105.5 18.5q-118 0 -181 -71.5t-63 -197.5t63.5 -197.5t175.5 -71.5q66 0 115 25.5t77.5 74t31.5 116.5h-188v25h226v-251h-22
l-8 150h-2q-4 -22 -19 -50t-42.5 -54t-69.5 -43t-101 -17z" />
    <glyph glyph-name="H" unicode="H" horiz-adv-x="574" 
d="M102 0h-27v563h27v-563zM474 563h25v-563h-25v563zM480 281h-384v25h384v-25z" />
    <glyph glyph-name="I" unicode="I" horiz-adv-x="305" 
d="M135 18v527h26v-527h-26zM55 0v24h185v-24h-185zM55 538v25h185v-25h-185z" />
    <glyph glyph-name="J" unicode="J" horiz-adv-x="394" 
d="M187 -10q-13 0 -36.5 4.5t-47.5 17.5t-41 40t-17 72h24q0 -23 9.5 -48.5t35.5 -43.5t73 -18q59 0 87.5 30.5t28.5 97.5v403h26v-403q0 -37 -9 -65.5t-27.5 -48t-44.5 -29t-61 -9.5zM196 538v24h133v-24h-133z" />
    <glyph glyph-name="K" unicode="K" horiz-adv-x="527" 
d="M96 199v37l350 327h35v-9zM75 -1v564h28v-564h-28zM460 0l-261 304l19 18l275 -313v-9h-33z" />
    <glyph glyph-name="L" unicode="L" horiz-adv-x="465" 
d="M70 15v548h26v-548h-26zM70 0v24h373v-24h-373z" />
    <glyph glyph-name="M" unicode="M" horiz-adv-x="671" 
d="M55 0v563h46l232 -548h2l230 548h46v-563h-26v543h-2l-229 -543h-42l-229 543h-2v-543h-26z" />
    <glyph glyph-name="N" unicode="N" horiz-adv-x="557" 
d="M472 563h25v-563h-47l-368 550h-2v-550h-25v563h45l370 -550h2v550z" />
    <glyph glyph-name="O" unicode="O" horiz-adv-x="597" 
d="M291 -14q-130 0 -198 79.5t-68 214.5q0 89 29.5 154.5t88.5 102t148 36.5q131 0 198.5 -79.5t67.5 -213.5q0 -87 -30 -153.5t-89 -103.5t-147 -37zM291 11q80 0 133 33t80 93.5t27 142.5t-26 142t-79.5 93t-134.5 33q-118 0 -179 -70t-61 -198q0 -81 26 -141.5t79.5 -94
t134.5 -33.5z" />
    <glyph glyph-name="P" unicode="P" horiz-adv-x="479" 
d="M96 0h-26v563h26v-563zM90 563h182q91 0 136.5 -42.5t45.5 -127.5q0 -82 -47 -125.5t-135 -43.5h-183v27h183q78 0 117.5 35t39.5 107q0 74 -38.5 109t-118.5 35h-182v26z" />
    <glyph glyph-name="Q" unicode="Q" horiz-adv-x="601" 
d="M304 -14q-130 0 -198 79.5t-68 214.5q0 89 29.5 154.5t88.5 102t148 36.5q88 0 147 -36t89 -101.5t30 -153.5t-30 -154.5t-89 -104t-147 -37.5zM358 -102q-13 0 -25 4.5t-21 15t-14 28t-5 43.5v19h24v-19q0 -8 1.5 -24t10.5 -29t29 -13q22 0 34 12l12 12l8 -22l-3.5 -4
t-10.5 -9.5t-17 -9.5t-23 -4zM304 11q119 0 179.5 73t60.5 196q0 122 -59 195t-181 73q-118 0 -179 -70t-61 -197q0 -123 59.5 -196.5t180.5 -73.5z" />
    <glyph glyph-name="R" unicode="R" horiz-adv-x="508" 
d="M68 0v563h164q71 0 119 -13.5t73 -47t25 -95.5q0 -35 -14 -67.5t-44 -53t-78 -20.5q42 0 65.5 -15.5t33.5 -40.5t12 -54t1.5 -57t1.5 -49.5t12 -31t34 -1.5v-25l-10.5 -1.5t-25 2t-25 18.5t-10.5 48q0 66 -5 105t-21 58t-49.5 25.5t-89.5 6t-142 -0.5v-253h-27zM95 278
h162q57 0 94 12.5t55 40.5t18 76q0 57 -22.5 84.5t-65 36.5t-104.5 9h-137v-259z" />
    <glyph glyph-name="S" unicode="S" horiz-adv-x="496" 
d="M263 -14q-43 0 -83.5 10.5t-73.5 32.5t-52.5 56t-20.5 81h27q0 -2 1.5 -18.5t10.5 -39.5t30.5 -45t60.5 -37t101 -15q60 0 94.5 15t51.5 36t22 40t5 26q1 42 -19 68t-54.5 41.5t-75.5 26t-82 22t-75.5 28.5t-54.5 46t-19 75q2 43 30 74t74 47.5t99 16.5q56 0 101 -20
t71 -58.5t24 -96.5h-27q2 46 -16 75t-45.5 45.5t-57 23t-51.5 6.5q-76 0 -124.5 -32.5t-50.5 -80.5q-1 -41 19 -66t54 -40t75 -25t81.5 -21.5t74.5 -29t54 -47.5t19 -78q-1 -45 -28.5 -76.5t-71.5 -48.5t-98 -17z" />
    <glyph glyph-name="T" unicode="T" horiz-adv-x="434" 
d="M231 545v-545h-26v545h26zM10 538v25h415v-25h-415z" />
    <glyph glyph-name="U" unicode="U" horiz-adv-x="558" 
d="M274 -14q-106 0 -165 66.5t-59 187.5v323h25v-323q0 -55 13.5 -97.5t39 -72t62.5 -44.5t84 -15q67 0 111 26t66.5 77.5t22.5 125.5v323h24v-323q0 -123 -57.5 -188.5t-166.5 -65.5z" />
    <glyph glyph-name="V" unicode="V" horiz-adv-x="477" 
d="M428 563h29l-211 -563h-46l-210 563h28l205 -547z" />
    <glyph glyph-name="W" unicode="W" horiz-adv-x="857" 
d="M403 563h29l-15 -40l-186 -523h-46l-185 563h29l180 -547zM807 563h30l-197 -563h-46l-177 523l-13 40h28l184 -547z" />
    <glyph glyph-name="X" unicode="X" horiz-adv-x="528" 
d="M30 0l214 300l-191 263h35l171 -241l171 241h35l-189 -263l214 -300h-34l-197 278l-198 -278h-31z" />
    <glyph glyph-name="Y" unicode="Y" horiz-adv-x="413" 
d="M189 207l-194 356h29l177 -322l175 322h28l-194 -356h-21zM186 0v220h27v-220h-27z" />
    <glyph glyph-name="Z" unicode="Z" horiz-adv-x="525" 
d="M30 0v23l417 514h-379v26h413v-23l-417 -514h414v-26h-448z" />
    <glyph glyph-name="bracketleft" unicode="[" horiz-adv-x="214" 
d="M35 -199v802h169v-25h-148v-753h148v-24h-169z" />
    <glyph glyph-name="backslash" unicode="\" horiz-adv-x="299" 
d="M299 0l-254 563h30l254 -563h-30z" />
    <glyph glyph-name="bracketright" unicode="]" horiz-adv-x="233" 
d="M35 -199v24h157v753h-148v25h169v-802h-178z" />
    <glyph glyph-name="asciicircum" unicode="^" horiz-adv-x="365" 
d="M25 320v14l157 228l158 -228v-14h-33l-124 198h-2l-124 -198h-32z" />
    <glyph glyph-name="underscore" unicode="_" horiz-adv-x="477" 
d="M20 0v26h402v-26h-402z" />
    <glyph glyph-name="grave" unicode="`" horiz-adv-x="155" 
d="M109 444l-71 101v11h30l57 -106v-6h-16z" />
    <glyph glyph-name="a" unicode="a" horiz-adv-x="400" 
d="M185 -9q-56 0 -94 28.5t-57 76t-19 104.5q0 60 20 107t58 74.5t92 27.5q27 0 50 -7t41.5 -20t32.5 -30.5t23 -39.5h1v92h27v-404h-21l-5 90h-2q-10 -22 -24 -40t-32.5 -31.5t-41 -20.5t-49.5 -7zM193 19q45 0 76 21t47 61.5t16 97.5q0 62 -17 102t-48 60t-74 20
q-49 0 -82.5 -23.5t-50 -64t-16.5 -93.5q0 -54 17 -95t50.5 -63.5t81.5 -22.5z" />
    <glyph glyph-name="b" unicode="b" horiz-adv-x="457" 
d="M239 -10q-41 0 -70 15t-48 36t-29 40t-13 26h-2l-5 -107h-22v563h28v-275h2q3 8 12 26.5t27 39.5t47.5 35.5t71.5 14.5q58 0 99.5 -28t64 -75t22.5 -103q0 -58 -22.5 -105t-64 -75t-98.5 -28zM242 18q53 0 87.5 26t51 67.5t16.5 86.5q0 46 -18.5 86.5t-55 66t-89.5 25.5
q-41 0 -76 -20.5t-56.5 -60.5t-21.5 -97q0 -58 23 -98.5t60 -61t79 -20.5z" />
    <glyph glyph-name="c" unicode="c" horiz-adv-x="435" 
d="M215 -10q-57 0 -99.5 24.5t-66.5 70t-24 107.5q2 62 26 110t67 75t100 27q46 0 82.5 -17t61 -47t33.5 -71h-26q-11 50 -52 79t-99 29q-49 0 -86 -23.5t-58 -65.5t-22 -97q0 -79 44.5 -126.5t118.5 -47.5q59 0 101 29t53 79h26q-9 -40 -34.5 -70.5t-62.5 -47.5t-83 -17z
" />
    <glyph glyph-name="d" unicode="d" horiz-adv-x="469" 
d="M235 -10q-57 0 -98.5 28.5t-64 75.5t-22.5 104t23 104t64.5 74.5t98.5 27.5q42 0 71.5 -14.5t47.5 -35.5t27 -39.5t12 -26.5h2v275h27v-563h-21l-5 107h-2q-3 -7 -13 -26t-29 -40t-48 -36t-70 -15zM232 18q42 0 79 20.5t60 61t23 98.5q0 57 -21.5 97t-56.5 60.5t-76 20.5
q-53 0 -89.5 -25.5t-55 -66t-18.5 -86.5q0 -45 16.5 -86.5t51 -67.5t87.5 -26z" />
    <glyph glyph-name="e" unicode="e" horiz-adv-x="439" 
d="M217 -10q-63 0 -105 31t-62.5 80t-19.5 101q1 51 22 97.5t62.5 75.5t102.5 29q49 0 87 -22t61.5 -62t27.5 -94q1 -6 1 -12.5v-12.5h-337q0 -84 41.5 -135t118.5 -51q56 0 97.5 29.5t51.5 80.5h27q-8 -40 -33 -70.5t-62 -47.5t-81 -17zM60 226h306q-1 23 -10 49.5t-27 50
t-46 38.5t-66 15q-34 0 -61 -11.5t-47 -32t-32.5 -48.5t-16.5 -61z" />
    <glyph glyph-name="f" unicode="f" horiz-adv-x="247" 
d="M80 -4v520q0 15 4.5 31t29.5 16h133v-25h-139v-542h-28zM10 379v25h227v-25h-227z" />
    <glyph glyph-name="g" unicode="g" horiz-adv-x="433" 
d="M125 -152v25h226v234h-2q-3 -7 -13 -26t-29 -40t-48 -36t-70 -15q-57 0 -98.5 28.5t-64 75.5t-22.5 104t22.5 104t64.5 74.5t99 27.5q42 0 71.5 -14.5t47.5 -35.5t27 -39.5t12 -26.5h2v116h28v-509q0 -10 -1.5 -21t-8.5 -18.5t-24 -7.5h-219zM186 18q42 0 79 20.5t60 61
t23 98.5q0 57 -21.5 97t-56.5 60.5t-76 20.5q-53 0 -89.5 -25.5t-55 -66t-18.5 -86.5q0 -45 16.5 -86.5t51 -67.5t87.5 -26z" />
    <glyph glyph-name="h" unicode="h" horiz-adv-x="426" 
d="M40 0v563h26v-273h2q3 8 11.5 26.5t26 38.5t46 34.5t70.5 14.5q41 0 69 -11t46 -30.5t27.5 -45.5t13 -55t3.5 -60v-202h-26v202q0 55 -12.5 94.5t-41 60.5t-77.5 21q-52 0 -87 -25.5t-53 -68t-18 -94.5v-190h-26z" />
    <glyph glyph-name="i" unicode="i" horiz-adv-x="138" 
d="M55 0v404h27v-404h-27zM69 473q-16 0 -22 8.5t-6 19.5t6 19t22 8q17 0 22 -8t5 -19t-5 -19.5t-22 -8.5z" />
    <glyph glyph-name="j" unicode="j" horiz-adv-x="178" 
d="M75 473q-16 0 -22 8.5t-6 19.5t6 19t22 8q17 0 22 -8t5 -19t-5 -19.5t-22 -8.5zM62 404h27v-509q0 -15 -4 -31t-30 -16h-64v25h71v531z" />
    <glyph glyph-name="k" unicode="k" horiz-adv-x="409" 
d="M82 -1h-27v564h27v-564zM197 229l197 -231h-36l-180 213zM75 106v37l276 261h39z" />
    <glyph glyph-name="l" unicode="l" horiz-adv-x="137" 
d="M55 0v563h27v-563h-27z" />
    <glyph glyph-name="m" unicode="m" horiz-adv-x="661" 
d="M40 0v404h21l5 -114h2q3 11 11 29.5t23.5 38t40.5 33t64 13.5q42 0 68 -17t39.5 -43t19.5 -54h2q3 11 12 29.5t25.5 38t43 33t65.5 13.5q40 0 65.5 -15.5t39.5 -40t20 -52t7.5 -53t1.5 -41.5v-202h-26v202q0 18 -2 47t-12 58.5t-33 50t-65 20.5q-45 0 -75.5 -25.5
t-46 -68t-15.5 -94.5v-190h-26v202q0 18 -2 47t-12 58.5t-33 50t-65 20.5q-45 0 -75.5 -25.5t-46 -68t-15.5 -94.5v-190h-26z" />
    <glyph glyph-name="n" unicode="n" horiz-adv-x="426" 
d="M40 0v404h21l5 -114h2q3 8 11.5 26.5t26 38.5t46 34.5t70.5 14.5q41 0 69 -11t46 -30.5t27.5 -45.5t13 -55t3.5 -60v-202h-26v202q0 55 -12.5 94.5t-41 60.5t-77.5 21q-52 0 -87 -25.5t-53 -68t-18 -94.5v-190h-26z" />
    <glyph glyph-name="o" unicode="o" horiz-adv-x="442" 
d="M214 -10q-61 0 -102 26.5t-61.5 73t-20.5 106.5q0 61 20.5 108t61.5 73.5t102 26.5q89 0 136 -57t47 -151q0 -58 -19.5 -105t-60 -74t-103.5 -27zM214 16q60 0 93.5 27t47.5 68.5t14 84.5q0 44 -14 86t-47.5 69t-93.5 27q-59 0 -93.5 -27t-48.5 -69t-14 -86
q0 -43 14 -84.5t48.5 -68.5t93.5 -27z" />
    <glyph glyph-name="p" unicode="p" horiz-adv-x="457" 
d="M239 -10q-41 0 -70 15t-48 36t-29 40t-13 26h-2v-259h-27v556h22l6 -116h2q3 8 12 26.5t27 39.5t47.5 35.5t71.5 14.5q58 0 99.5 -28t64 -75t22.5 -104q0 -58 -23 -105t-64.5 -74.5t-97.5 -27.5zM242 18q53 0 87.5 26t51 67.5t16.5 86.5q0 46 -18.5 86.5t-55 66
t-89.5 25.5q-41 0 -76 -20.5t-56.5 -60.5t-21.5 -97q0 -58 23 -98.5t60 -61t79 -20.5z" />
    <glyph glyph-name="q" unicode="q" horiz-adv-x="457" 
d="M218 -10q-57 0 -98.5 28t-64 75.5t-22.5 103.5q0 58 23 105t65 74.5t98 27.5q42 0 71.5 -14.5t47.5 -35.5t27 -39.5t12 -26.5h2l6 116h22v-556h-27v259h-2q-3 -7 -13 -26t-29 -40t-48 -36t-70 -15zM215 18q42 0 79 20.5t60 61t23 98.5q0 57 -21.5 97t-56.5 60.5t-76 20.5
q-53 0 -89.5 -25.5t-55 -66t-18.5 -86.5q0 -45 16.5 -86.5t51 -67.5t87.5 -26z" />
    <glyph glyph-name="r" unicode="r" horiz-adv-x="266" 
d="M55 0v404h21l6 -116l-1 -86v-202h-26zM81 202l-3 87q3 26 14.5 47t31 36t46.5 23.5t61 8.5h25v-30h-25q-54 0 -84.5 -14t-44.5 -38.5t-17.5 -55.5t-3.5 -64z" />
    <glyph glyph-name="s" unicode="s" horiz-adv-x="390" 
d="M196 -10q-48 0 -78.5 13.5t-47.5 33.5t-25 39.5t-9.5 33l-1.5 13.5h28q0 -1 3 -18t15.5 -38.5t40 -37.5t76.5 -16q34 0 64.5 8t49.5 26.5t18 49.5q0 36 -21 55t-54 28t-69 16t-68.5 18t-52.5 33.5t-19 63.5q1 44 44 73.5t112 29.5q22 0 49 -5t51.5 -18.5t39.5 -39
t12 -67.5h-28q2 34 -11 54.5t-34 31.5t-44 14.5t-41 3.5q-50 0 -87 -19t-37 -58q0 -32 20.5 -49t53 -25.5t68.5 -15.5t68.5 -19.5t53 -36.5t20.5 -68q0 -39 -21.5 -62.5t-57.5 -34t-80 -10.5z" />
    <glyph glyph-name="t" unicode="t" horiz-adv-x="247" 
d="M109 0q-25 0 -29.5 16t-4.5 31v339h27v-361h95v-25h-88zM7 379v25q28 0 42.5 2t19.5 11t5.5 31t0.5 61h27v-105h95v-25h-190z" />
    <glyph glyph-name="u" unicode="u" horiz-adv-x="430" 
d="M199 -10q-37 0 -64.5 10t-46 28t-29.5 43t-16 55.5t-5 65.5v212h27v-212q0 -50 11 -90t40 -63t83 -23q51 0 82.5 24t47.5 62.5t19 81.5v220h27v-404h-21l-5 103h-2q-6 -19 -18 -38.5t-30.5 -36.5t-43.5 -27.5t-56 -10.5z" />
    <glyph glyph-name="v" unicode="v" horiz-adv-x="379" 
d="M336 404h28v-12l-167 -392h-40l-167 392v12h28l159 -383h2z" />
    <glyph glyph-name="w" unicode="w" horiz-adv-x="571" 
d="M123 0l-123 392v12h24l116 -380h2l122 380h26l124 -380h2l113 380h24v-12l-119 -392h-41l-115 356h-2l-114 -356h-39z" />
    <glyph glyph-name="x" unicode="x" horiz-adv-x="390" 
d="M20 0l148 208l-142 196h34l125 -173l126 173h34l-143 -196l152 -208h-36l-133 185l-132 -185h-33z" />
    <glyph glyph-name="y" unicode="y" horiz-adv-x="374" 
d="M-5 -174v25h49q13 0 21.5 5.5t17 19.5t20.5 39l58 125l-159 364h29l145 -332l153 332h30l-233 -497q-12 -25 -21.5 -41t-18.5 -25t-20 -12t-25 -3h-46z" />
    <glyph glyph-name="z" unicode="z" horiz-adv-x="416" 
d="M35 0v21l306 359h-293v24h333v-24l-308 -356h308v-24h-346z" />
    <glyph glyph-name="braceleft" unicode="{" horiz-adv-x="248" 
d="M228 -196q-55 -6 -86 2t-43.5 34.5t-12 75t7.5 122.5q6 57 2 88.5t-14 44.5t-23 16t-24 3v28q11 0 24 3t23 16t14 44.5t-2 88.5q-6 74 -6.5 122t11.5 74.5t43 34.5t86 2v-24q-55 12 -82.5 5t-35.5 -33.5t-4 -71.5t12 -107q8 -48 9 -80t-14 -52.5t-55 -36.5
q40 -15 55 -35.5t14 -52t-9 -79.5q-8 -63 -12 -107.5t4 -71t35.5 -34t82.5 4.5v-24z" />
    <glyph glyph-name="bar" unicode="|" horiz-adv-x="147" 
d="M60 -151v752h27v-752h-27z" />
    <glyph glyph-name="braceright" unicode="}" horiz-adv-x="263" 
d="M35 -196v24q55 -12 82.5 -4.5t35.5 34t4 71t-12 107.5q-8 48 -9 79.5t14 52t55 35.5q-40 16 -55 36.5t-13.5 52.5t8.5 80q8 62 12 107t-4 71.5t-35.5 33.5t-82.5 -5v24q56 6 86.5 -2t42.5 -34.5t11.5 -74.5t-6.5 -122q-6 -57 -2 -88.5t14 -44.5t23 -16t24 -3v-28
q-11 0 -24 -3t-23 -16t-14 -44.5t2 -88.5q7 -74 7.5 -122.5t-12 -75t-43 -34.5t-86.5 -2z" />
    <glyph glyph-name="asciitilde" unicode="~" horiz-adv-x="350" 
d="M227 190q-23 0 -36 11t-22 25.5t-18.5 25.5t-26.5 11q-22 0 -27.5 -19t-4.5 -44h-25q-1 16 1.5 31t8.5 26.5t17.5 18.5t29.5 7q24 0 36.5 -11t21 -25.5t18 -25.5t27.5 -11q23 0 27.5 20.5t4.5 43.5h25q1 -14 -1 -29t-8 -27.5t-18 -20t-30 -7.5z" />
    <glyph glyph-name="uni00A0" unicode="&#xa0;" horiz-adv-x="255" 
 />
    <glyph glyph-name="exclamdown" unicode="&#xa1;" horiz-adv-x="155" 
d="M85 373q12 0 16 -7.5t4 -18.5q0 -10 -4 -17t-16 -7t-16 7t-4 17q0 11 4 18.5t16 7.5zM75 254l3 -0.5t7 -0.5t6.5 0.5l2.5 0.5q2 -119 5 -199.5t4.5 -131t1 -77t-5 -36t-14.5 -9.5t-14.5 9.5t-5.5 36t0.5 77t4.5 131t5 199.5z" />
    <glyph glyph-name="cent" unicode="&#xa2;" horiz-adv-x="435" 
d="M215 -10q-57 0 -99.5 24.5t-66.5 70t-24 107.5q2 62 26 110t67 75t100 27q46 0 82.5 -17t61 -47t33.5 -71h-26q-11 50 -52 79t-99 29q-49 0 -86 -23.5t-58 -65.5t-22 -97q0 -79 44.5 -126.5t118.5 -47.5q59 0 101 29t53 79h26q-9 -40 -34.5 -70.5t-62.5 -47.5t-83 -17z
M203 -80v80h25v-80h-25zM203 394v80h25v-80h-25z" />
    <glyph glyph-name="sterling" unicode="&#xa3;" horiz-adv-x="561" 
d="M68 -12l-14 21q33 26 53 54t26.5 59.5t-1 67t-28.5 77.5q-28 56 -30 110.5t19.5 98.5t64.5 70t104 26q58 0 102 -22.5t69 -64.5t25 -101h-27l-1 17t-8.5 42t-25 49.5t-50 41.5t-84.5 17q-54 0 -91.5 -23.5t-55.5 -62.5t-16 -87.5t27 -99.5q27 -56 31.5 -97.5t-7 -74.5
t-33.5 -65q38 17 76 14t75 -13t72.5 -18t69 -3.5t64.5 33.5q25 23 30.5 57t-7.5 73l24 8q14 -43 10 -74t-16 -51.5t-24 -32.5q-33 -31 -66 -39t-66 -1.5t-66.5 17.5t-69 18t-72.5 0.5t-77 -36.5q-1 -1 -2.5 -2t-3.5 -3zM30 224v25h370v-25h-370z" />
    <glyph glyph-name="currency" unicode="&#xa4;" horiz-adv-x="500" 
d="M419 -1h-34l-41 59q-38 -27 -93 -27q-57 0 -96 28l-42 -60h-31l54 77q-41 46 -41 126q0 90 50 135l-47 65h34l35 -50q34 20 84 20q48 0 82 -19l34 49h35l-47 -65q51 -46 51 -135q0 -79 -41 -126zM251 52q25 0 45 6.5t36 16.5q4 3 7 6l6 6q-9 -10 -9.5 -10t3.5 4l8.5 8.5
l4.5 4.5q32 40 32 108q0 78 -41 118q-8 8 -22 15q-30 16 -70 16q-42 0 -72 -16q-1 -1 -11 -8t-10 -8q-41 -38 -41 -117q0 -33 12.5 -67.5t38.5 -58.5q16 -11 36.5 -17.5t46.5 -6.5z" />
    <glyph glyph-name="yen" unicode="&#xa5;" horiz-adv-x="412" 
d="M189 207l-194 356h29l176 -322l176 322h28l-194 -356h-21zM69 121v24h262v-24h-262zM69 195v24h262v-24h-262zM186 0v220h27v-220h-27z" />
    <glyph glyph-name="brokenbar" unicode="&#xa6;" horiz-adv-x="147" 
d="M60 281v320h27v-320h-27zM60 -151v320h27v-320h-27z" />
    <glyph glyph-name="section" unicode="&#xa7;" horiz-adv-x="600" 
d="M418 223v-2q23 -15 39 -40t15 -60q-3 -56 -51.5 -88t-116.5 -32q-47 0 -90.5 16t-71.5 50t-30 86h31q0 -2 1.5 -15t9 -31t24.5 -35.5t48 -29t80 -11.5q45 0 72 11t40.5 27t18 31t4.5 22q1 38 -21 59.5t-58 33.5t-76.5 21.5t-76.5 24t-58 40t-20 70.5q1 28 20.5 48.5
t47.5 31.5v1q-31 17 -50 42.5t-18 61.5q2 36 25 61.5t61.5 39.5t84.5 14q47 0 84.5 -16.5t59.5 -48.5t20 -81h-30q1 36 -13 59t-36 35.5t-45.5 17.5t-41.5 5q-59 0 -97.5 -25t-40.5 -63q0 -37 22.5 -58t58 -32.5t76 -20.5t76 -23.5t57.5 -41t20 -72.5q-1 -28 -16 -48
t-38 -35zM162 369q0 -35 17.5 -55.5t47.5 -32t65.5 -19.5t69.5 -18q11 -2 15 -3t6 -2q8 -2 12 -0.5t6 2.5q26 17 33 37t7 29q1 33 -16.5 54t-47 34t-64.5 21.5t-69 17.5q-14 3 -21.5 4.5t-20.5 -6.5q-39 -26 -40 -63z" />
    <glyph glyph-name="dieresis" unicode="&#xa8;" horiz-adv-x="289" 
d="M79 465q-20 0 -27 10.5t-7 23.5t7 23t27 10t26.5 -10t6.5 -23t-6.5 -23.5t-26.5 -10.5zM211 465q-20 0 -27 10.5t-7 23.5t7 23t27 10t26.5 -10t6.5 -23t-6.5 -23.5t-26.5 -10.5z" />
    <glyph glyph-name="copyright" unicode="&#xa9;" horiz-adv-x="653" 
d="M328 -10q-61 0 -114 22.5t-93.5 63t-63 93.5t-22.5 114q0 59 22.5 111.5t63 92.5t93.5 63t114 23q59 0 111.5 -23t92.5 -63t63 -92.5t23 -111.5q0 -61 -23 -114t-63 -93.5t-92.5 -63t-111.5 -22.5zM328 14q54 0 102.5 21t85.5 58t58 86t21 104q0 54 -21 102.5t-58 85.5
t-85.5 58t-102.5 21q-55 0 -104 -21t-86 -58t-58 -85.5t-21 -102.5q0 -55 21 -104t58 -86t86 -58t104 -21zM330 114q-45 0 -81 19t-56.5 57t-20.5 93q0 81 45 124t115 43q37 0 67.5 -14t50.5 -41.5t25 -66.5l-26 -2q-10 47 -39 72.5t-78 25.5q-60 0 -96 -37t-36 -104
q0 -70 35 -107.5t95 -37.5q52 0 81.5 27t39.5 70l29 -2q-7 -38 -27 -64.5t-50.5 -40.5t-72.5 -14z" />
    <glyph glyph-name="ordfeminine" unicode="&#xaa;" horiz-adv-x="243" 
d="M122 401q-51 0 -77 37t-26 89q0 55 27 91t76 36q22 0 39.5 -7t30 -20.5t19.5 -31.5v56h17v-245h-12l-3 55h-2q-7 -18 -19.5 -31.5t-30 -21t-39.5 -7.5zM127 418q41 0 62.5 28.5t21.5 80.5q0 56 -22.5 83t-61.5 27q-45 0 -68 -31t-23 -79q0 -49 24 -79t67 -30z" />
    <glyph glyph-name="guillemotleft" unicode="&#xab;" horiz-adv-x="460" 
d="M295 494v-42l-241 -157l241 -157v-45l-280 202zM445 494v-42l-241 -157l241 -157v-45l-280 202z" />
    <glyph glyph-name="logicalnot" unicode="&#xac;" horiz-adv-x="350" 
d="M64 211v26h222v-26h-222zM259 123v114h27v-114h-27z" />
    <glyph glyph-name="registered" unicode="&#xae;" horiz-adv-x="408" 
d="M203 229q-48 0 -87 23t-62.5 62t-23.5 86q0 48 23.5 87t62.5 62t87 23q47 0 85.5 -23t61.5 -62t23 -87q0 -47 -23 -86t-61.5 -62t-85.5 -23zM203 250q41 0 75 20.5t54 54.5t20 75q0 42 -20 76.5t-54 54.5t-75 20q-42 0 -76 -20t-54.5 -54.5t-20.5 -76.5q0 -41 20.5 -75
t54.5 -54.5t76 -20.5zM137 311v189h62q37 0 56.5 -12t19.5 -43q0 -20 -11.5 -35.5t-36.5 -15.5q22 0 28.5 -12t7.5 -27t3.5 -24t17.5 -4v-15q-5 -4 -15 -5t-18 6t-8 26q0 27 -4.5 38t-22 13t-56.5 1v-80h-23zM160 409h43q26 0 38.5 6.5t12.5 27.5q0 25 -15.5 31t-44.5 6h-34
v-71z" />
    <glyph glyph-name="macron" unicode="&#xaf;" horiz-adv-x="302" 
d="M40 467v26h222v-26h-222z" />
    <glyph glyph-name="degree" unicode="&#xb0;" horiz-adv-x="297" 
d="M123 388q-49 0 -71 25t-22 66q0 43 21.5 68.5t71.5 25.5q48 0 71 -25.5t23 -68.5q0 -39 -23 -65t-71 -26zM123 409q41 0 56.5 20.5t15.5 50.5q0 31 -15.5 52.5t-56.5 21.5t-57 -22t-16 -52q0 -31 18 -51t55 -20z" />
    <glyph glyph-name="plusminus" unicode="&#xb1;" horiz-adv-x="350" 
d="M64 56v26h222v-26h-222zM165 131v190h26v-190h-26zM64 210v26h222v-26h-222z" />
    <glyph glyph-name="uni00B2" unicode="&#xb2;" horiz-adv-x="228" 
d="M15 404v23l19.5 13.5t47 35.5t52.5 46.5t37 47.5q18 35 0.5 61.5t-58.5 26.5q-28 0 -47 -17.5t-18 -51.5l-25 2q-1 42 25 66t68 24q36 0 59.5 -16.5t30 -43t-9.5 -57.5q-10 -21 -33 -43.5t-48.5 -43t-45.5 -34t-24 -15.5h168v-24h-198z" />
    <glyph glyph-name="uni00B3" unicode="&#xb3;" horiz-adv-x="231" 
d="M118 394q-39 0 -70.5 22.5t-32.5 68.5l26 3q2 -36 25.5 -53t51.5 -17q29 0 51 15.5t22 41.5q0 21 -11 32.5t-25 16t-24 4.5h-38v16h39q24 0 38 12.5t14 32.5q0 28 -18.5 43.5t-49.5 15.5q-25 0 -40 -10.5t-22 -24.5t-8 -25l-25 3q0 8 5 21t16 26.5t29 23t45 9.5
q42 0 67.5 -20.5t25.5 -56.5q0 -23 -12.5 -37.5t-32.5 -20.5q21 -5 36.5 -22t15.5 -43q0 -35 -28 -56t-70 -21z" />
    <glyph glyph-name="acute" unicode="&#xb4;" horiz-adv-x="172" 
d="M54 444h-16v6l57 106h30v-11z" />
    <glyph glyph-name="uni00B5" unicode="&#xb5;" horiz-adv-x="430" 
d="M41 -152v556h27v-212q0 -50 11 -89.5t40 -62.5t83 -23q50 0 81.5 24t47.5 62t19 81v220h27v-403h-21l-5 103h-2q-8 -25 -27 -51t-49 -44t-71 -18q-50 0 -82 17t-50 48h-2v-208h-27z" />
    <glyph glyph-name="paragraph" unicode="&#xb6;" horiz-adv-x="485" 
d="M223 -94v403h-10q-54 2 -99 20.5t-71.5 60t-26.5 112.5q0 69 26 110.5t70 61t97 21.5h14h54v-789h-54zM341 -94v789h53v-789h-53zM207 646l-4 49h266v-49h-262z" />
    <glyph glyph-name="periodcentered" unicode="&#xb7;" horiz-adv-x="177" 
d="M84 201q-23 0 -31 11.5t-8 27.5q0 15 8 26.5t31 11.5t30.5 -11.5t7.5 -26.5q0 -16 -7.5 -27.5t-30.5 -11.5z" />
    <glyph glyph-name="cedilla" unicode="&#xb8;" horiz-adv-x="234" 
d="M30 -116l15 18q14 -16 35 -25t42 -9q25 0 41.5 11t16.5 33q0 17 -12 24t-28 7q-15 0 -32.5 -6t-31.5 -17l-15 16l37 73l21 -9l-41 -62q11 12 29 19.5t37 7.5q23 0 41.5 -12t18.5 -40q0 -33 -26.5 -50.5t-61.5 -17.5q-22 0 -45.5 10t-40.5 29z" />
    <glyph glyph-name="uni00B9" unicode="&#xb9;" horiz-adv-x="156" 
d="M75 413v224q-7 -19 -20 -29t-24.5 -13.5t-15.5 -3.5v29q4 0 19 4t29 16.5t14 37.5h24v-265h-26zM31 401v25h110v-25h-110z" />
    <glyph glyph-name="ordmasculine" unicode="&#xba;" horiz-adv-x="280" 
d="M141 404q-63 0 -94.5 39.5t-31.5 100.5q0 62 31.5 102t94.5 40q60 0 92 -39t32 -103q0 -60 -30.5 -100t-93.5 -40zM141 421q40 0 63 18.5t32.5 47t9.5 57.5q0 30 -9.5 58.5t-32.5 47t-63 18.5q-41 0 -64.5 -18.5t-33 -47t-9.5 -58.5q0 -29 9.5 -57.5t33 -47t64.5 -18.5z
" />
    <glyph glyph-name="guillemotright" unicode="&#xbb;" horiz-adv-x="460" 
d="M165 494l280 -199l-280 -202v45l241 157l-241 157v42zM15 494l280 -199l-280 -202v45l241 157l-241 157v42z" />
    <glyph glyph-name="onequarter" unicode="&#xbc;" horiz-adv-x="578" 
d="M75 299v224q-7 -19 -20 -29t-24.5 -13.5t-15.5 -3.5v29q4 0 19 4t29 16.5t14 37.5h24v-265h-26zM31 287v25h110v-25h-110zM56 0l-20 15l209 277l189 270l20 -14l-197 -264zM349 59v25q32 15 57.5 47t41.5 71t16 75h30q0 -55 -33 -107.5t-81 -85.5h183v-25h-214zM496 0
v138h28v-138h-28z" />
    <glyph glyph-name="onehalf" unicode="&#xbd;" horiz-adv-x="562" 
d="M75 299v224q-7 -19 -20 -29t-24.5 -13.5t-15.5 -3.5v29q4 0 19 4t29 16.5t14 37.5h24v-265h-26zM31 287v25h110v-25h-110zM56 0l-20 15l209 277l189 270l20 -14l-197 -264zM349 0v23l19.5 13.5t47 35.5t52.5 46.5t37 47.5q18 35 0.5 61.5t-58.5 26.5q-28 0 -47 -17.5
t-18 -51.5l-25 2q-1 42 25 66t68 24q36 0 59.5 -16.5t30 -43t-9.5 -57.5q-10 -21 -33 -43.5t-48.5 -43t-45.5 -34t-24 -15.5h168v-24h-198z" />
    <glyph glyph-name="threequarters" unicode="&#xbe;" horiz-adv-x="653" 
d="M118 277q-40 0 -71 22.5t-32 68.5l26 3q2 -36 25.5 -53t51.5 -17q29 0 51 16.5t22 42.5q0 23 -11 35t-25 16.5t-24 4.5h-38v16h39q24 0 38 15t14 35q0 28 -18.5 43.5t-49.5 15.5q-25 0 -40 -10.5t-22 -24.5t-8 -25l-25 3q0 8 5 21t16 26.5t29 23t45 9.5q42 0 67.5 -20.5
t25.5 -56.5q0 -23 -12.5 -40t-32.5 -23q21 -5 36.5 -22.5t15.5 -45.5q0 -35 -28 -57t-70 -22zM131 0l-20 15l209 277l189 270l20 -14l-197 -264zM424 59v25q32 15 57.5 47t41.5 71t16 75h30q0 -55 -33 -107.5t-81 -85.5h183v-25h-214zM571 0v138h28v-138h-28z" />
    <glyph glyph-name="questiondown" unicode="&#xbf;" horiz-adv-x="424" 
d="M212 250h22q-1 -46 -18.5 -76.5t-42.5 -53t-50 -44t-42 -48.5t-17 -67q0 -61 41.5 -98t105.5 -37q37 0 65.5 12t47.5 33.5t28.5 50.5t9.5 63h27q0 -40 -12 -73.5t-35 -58.5t-56 -38.5t-75 -13.5q-46 0 -85 19t-62.5 55t-23.5 86q0 45 17 74t42 50.5t50.5 42.5t43.5 49.5
t19 72.5zM221 374q12 0 15.5 -7.5t3.5 -18.5q0 -10 -3.5 -17t-15.5 -7t-15.5 7t-3.5 17q0 11 3.5 18.5t15.5 7.5z" />
    <glyph glyph-name="Agrave" unicode="&#xc0;" horiz-adv-x="516" 
d="M20 0l216 563h44l218 -563h-28l-211 550l-213 -550h-26zM115 194l11 27h265l11 -27h-287zM262 603l-71 101v11h30l57 -106v-6h-16z" />
    <glyph glyph-name="Aacute" unicode="&#xc1;" horiz-adv-x="516" 
d="M20 0l216 563h44l218 -563h-28l-211 550l-213 -550h-26zM115 194l11 27h265l11 -27h-287zM265 603h-16v6l57 106h30v-11z" />
    <glyph glyph-name="Acircumflex" unicode="&#xc2;" horiz-adv-x="516" 
d="M20 0l216 563h44l218 -563h-28l-211 550l-213 -550h-26zM115 194l11 27h265l11 -27h-287zM150 620v6l100 98h14l101 -98v-6h-31l-76 82h-2l-75 -82h-31z" />
    <glyph glyph-name="Atilde" unicode="&#xc3;" horiz-adv-x="516" 
d="M20 0l216 563h44l218 -563h-28l-211 550l-213 -550h-26zM115 194l11 27h265l11 -27h-287zM159 629q-1 17 1 30t8 23t16 15t25 5q21 0 33.5 -8t21 -18.5t18 -18.5t24.5 -8q18 0 21.5 14t3.5 40h25q1 -16 -1 -30t-8 -23.5t-16 -15t-25 -5.5q-20 0 -33 8t-22 18.5
t-18.5 18.5t-23.5 8q-17 0 -21.5 -14t-3.5 -39h-25z" />
    <glyph glyph-name="Adieresis" unicode="&#xc4;" horiz-adv-x="516" 
d="M20 0l216 563h44l218 -563h-28l-211 550l-213 -550h-26zM115 194l11 27h265l11 -27h-287zM192 624q-20 0 -27 10.5t-7 23.5t7 23t27 10t26.5 -10t6.5 -23t-6.5 -23.5t-26.5 -10.5zM324 624q-20 0 -27 10.5t-7 23.5t7 23t27 10t26.5 -10t6.5 -23t-6.5 -23.5t-26.5 -10.5z
" />
    <glyph glyph-name="Aring" unicode="&#xc5;" horiz-adv-x="516" 
d="M20 0l216 563h44l218 -563h-28l-211 550l-213 -550h-26zM115 194l11 27h265l11 -27h-287zM257 624q-37 0 -60 22t-23 59q0 38 22.5 60.5t60.5 22.5t61 -22.5t23 -60.5q0 -35 -23 -58t-61 -23zM257 643q29 0 45.5 18.5t16.5 44.5t-16.5 44.5t-45.5 18.5t-46 -18.5
t-17 -44.5q0 -27 18.5 -45t44.5 -18z" />
    <glyph glyph-name="AE" unicode="&#xc6;" horiz-adv-x="816" 
d="M419 0v563h353v-26h-326v-239h265v-26h-265v-247h335v-25h-362zM182 194l11 27h237v-27h-248zM20 0l386 563h30l-388 -563h-28z" />
    <glyph glyph-name="Ccedilla" unicode="&#xc7;" horiz-adv-x="590" 
d="M297 -10q-76 0 -136.5 33t-95.5 98t-35 161q0 98 34 162.5t95.5 96.5t141.5 32q62 0 112 -22.5t84.5 -67.5t47.5 -113h-28q-11 57 -40 97t-73.5 61t-102.5 21q-111 0 -177.5 -68.5t-66.5 -198.5q0 -133 65.5 -200.5t174.5 -67.5q64 0 110.5 21.5t75 61t38.5 93.5h29
q-12 -66 -46 -110.5t-86.5 -67t-120.5 -22.5zM219 -116l15 18q14 -16 35 -25t42 -9q25 0 41.5 11t16.5 33q0 17 -12 24t-28 7q-15 0 -32.5 -6t-31.5 -17l-15 16l37 73l21 -9l-41 -62q11 12 29 19.5t37 7.5q23 0 41.5 -12t18.5 -40q0 -33 -26.5 -50.5t-61.5 -17.5
q-22 0 -45.5 10t-40.5 29z" />
    <glyph glyph-name="Egrave" unicode="&#xc8;" horiz-adv-x="457" 
d="M60 0v563h353v-26h-326v-239h265v-26h-265v-247h335v-25h-362zM233 603l-71 101v11h30l57 -106v-6h-16z" />
    <glyph glyph-name="Eacute" unicode="&#xc9;" horiz-adv-x="457" 
d="M60 0v563h353v-26h-326v-239h265v-26h-265v-247h335v-25h-362zM236 603h-16v6l57 106h30v-11z" />
    <glyph glyph-name="Ecircumflex" unicode="&#xca;" horiz-adv-x="457" 
d="M60 0v563h353v-26h-326v-239h265v-26h-265v-247h335v-25h-362zM121 620v6l100 98h14l101 -98v-6h-31l-76 82h-2l-75 -82h-31z" />
    <glyph glyph-name="Edieresis" unicode="&#xcb;" horiz-adv-x="457" 
d="M60 0v563h353v-26h-326v-239h265v-26h-265v-247h335v-25h-362zM163 624q-20 0 -27 10.5t-7 23.5t7 23t27 10t26.5 -10t6.5 -23t-6.5 -23.5t-26.5 -10.5zM295 624q-20 0 -27 10.5t-7 23.5t7 23t27 10t26.5 -10t6.5 -23t-6.5 -23.5t-26.5 -10.5z" />
    <glyph glyph-name="Igrave" unicode="&#xcc;" horiz-adv-x="305" 
d="M135 18v527h26v-527h-26zM55 0v24h185v-24h-185zM55 538v25h185v-25h-185zM152 603l-71 101v11h30l57 -106v-6h-16z" />
    <glyph glyph-name="Iacute" unicode="&#xcd;" horiz-adv-x="305" 
d="M135 18v527h26v-527h-26zM55 0v24h185v-24h-185zM55 538v25h185v-25h-185zM155 603h-16v6l57 106h30v-11z" />
    <glyph glyph-name="Icircumflex" unicode="&#xce;" horiz-adv-x="305" 
d="M135 18v527h26v-527h-26zM55 0v24h185v-24h-185zM55 538v25h185v-25h-185zM40 620v6l100 98h14l101 -98v-6h-31l-76 82h-2l-75 -82h-31z" />
    <glyph glyph-name="Idieresis" unicode="&#xcf;" horiz-adv-x="305" 
d="M135 18v527h26v-527h-26zM55 0v24h185v-24h-185zM55 538v25h185v-25h-185zM82 624q-20 0 -27 10.5t-7 23.5t7 23t27 10t26.5 -10t6.5 -23t-6.5 -23.5t-26.5 -10.5zM214 624q-20 0 -27 10.5t-7 23.5t7 23t27 10t26.5 -10t6.5 -23t-6.5 -23.5t-26.5 -10.5z" />
    <glyph glyph-name="Eth" unicode="&#xd0;" horiz-adv-x="600" 
d="M70 0v563h97.5h45.5q98 0 171 -31.5t114 -93.5t41 -156q0 -111 -41 -172.5t-114 -85.5t-171 -24h-48h-95zM0 274v25h293v-25h-293zM97 25h76.5h39.5q67 0 122 10.5t94.5 38.5t60.5 78.5t21 129.5q0 88 -37 144.5t-104 84t-157 27.5h-116v-513z" />
    <glyph glyph-name="Ntilde" unicode="&#xd1;" horiz-adv-x="557" 
d="M472 563h25v-563h-47l-368 550h-2v-550h-25v563h45l370 -550h2v550zM180 629q-1 17 1 30t8 23t16 15t25 5q21 0 33.5 -8t21 -18.5t18 -18.5t24.5 -8q18 0 21.5 14t3.5 40h25q1 -16 -1 -30t-8 -23.5t-16 -15t-25 -5.5q-20 0 -33 8t-22 18.5t-18.5 18.5t-23.5 8
q-17 0 -21.5 -14t-3.5 -39h-25z" />
    <glyph glyph-name="Ograve" unicode="&#xd2;" horiz-adv-x="597" 
d="M291 -14q-130 0 -198 79.5t-68 214.5q0 89 29.5 154.5t88.5 102t148 36.5q131 0 198.5 -79.5t67.5 -213.5q0 -87 -30 -153.5t-89 -103.5t-147 -37zM291 11q80 0 133 33t80 93.5t27 142.5t-26 142t-79.5 93t-134.5 33q-118 0 -179 -70t-61 -198q0 -81 26 -141.5t79.5 -94
t134.5 -33.5zM303 603l-71 101v11h30l57 -106v-6h-16z" />
    <glyph glyph-name="Oacute" unicode="&#xd3;" horiz-adv-x="597" 
d="M291 -14q-130 0 -198 79.5t-68 214.5q0 89 29.5 154.5t88.5 102t148 36.5q131 0 198.5 -79.5t67.5 -213.5q0 -87 -30 -153.5t-89 -103.5t-147 -37zM291 11q80 0 133 33t80 93.5t27 142.5t-26 142t-79.5 93t-134.5 33q-118 0 -179 -70t-61 -198q0 -81 26 -141.5t79.5 -94
t134.5 -33.5zM306 603h-16v6l57 106h30v-11z" />
    <glyph glyph-name="Ocircumflex" unicode="&#xd4;" horiz-adv-x="597" 
d="M291 -14q-130 0 -198 79.5t-68 214.5q0 89 29.5 154.5t88.5 102t148 36.5q131 0 198.5 -79.5t67.5 -213.5q0 -87 -30 -153.5t-89 -103.5t-147 -37zM291 11q80 0 133 33t80 93.5t27 142.5t-26 142t-79.5 93t-134.5 33q-118 0 -179 -70t-61 -198q0 -81 26 -141.5t79.5 -94
t134.5 -33.5zM191 620v6l100 98h14l101 -98v-6h-31l-76 82h-2l-75 -82h-31z" />
    <glyph glyph-name="Otilde" unicode="&#xd5;" horiz-adv-x="597" 
d="M291 -14q-130 0 -198 79.5t-68 214.5q0 89 29.5 154.5t88.5 102t148 36.5q131 0 198.5 -79.5t67.5 -213.5q0 -87 -30 -153.5t-89 -103.5t-147 -37zM291 11q80 0 133 33t80 93.5t27 142.5t-26 142t-79.5 93t-134.5 33q-118 0 -179 -70t-61 -198q0 -81 26 -141.5t79.5 -94
t134.5 -33.5zM200 629q-1 17 1 30t8 23t16 15t25 5q21 0 33.5 -8t21 -18.5t18 -18.5t24.5 -8q18 0 21.5 14t3.5 40h25q1 -16 -1 -30t-8 -23.5t-16 -15t-25 -5.5q-20 0 -33 8t-22 18.5t-18.5 18.5t-23.5 8q-17 0 -21.5 -14t-3.5 -39h-25z" />
    <glyph glyph-name="Odieresis" unicode="&#xd6;" horiz-adv-x="597" 
d="M291 -14q-130 0 -198 79.5t-68 214.5q0 89 29.5 154.5t88.5 102t148 36.5q131 0 198.5 -79.5t67.5 -213.5q0 -87 -30 -153.5t-89 -103.5t-147 -37zM291 11q80 0 133 33t80 93.5t27 142.5t-26 142t-79.5 93t-134.5 33q-118 0 -179 -70t-61 -198q0 -81 26 -141.5t79.5 -94
t134.5 -33.5zM233 624q-20 0 -27 10.5t-7 23.5t7 23t27 10t26.5 -10t6.5 -23t-6.5 -23.5t-26.5 -10.5zM365 624q-20 0 -27 10.5t-7 23.5t7 23t27 10t26.5 -10t6.5 -23t-6.5 -23.5t-26.5 -10.5z" />
    <glyph glyph-name="multiply" unicode="&#xd7;" horiz-adv-x="350" 
d="M273 101l-99 99l-95 -96l-22 22l96 95l-95 95l22 22l94 -95l97 97l22 -22l-97 -97l97 -98z" />
    <glyph glyph-name="Oslash" unicode="&#xd8;" horiz-adv-x="600" 
d="M90 -22l422 611l20 -12l-422 -611zM291 -14q-130 0 -198 79.5t-68 214.5q0 89 29.5 154.5t88.5 102t148 36.5q131 0 198.5 -79.5t67.5 -213.5q0 -87 -30 -153.5t-89 -103.5t-147 -37zM291 11q80 0 133 33t80 93.5t27 142.5t-26 142t-79.5 93t-134.5 33q-118 0 -179 -70
t-61 -198q0 -81 26 -141.5t79.5 -94t134.5 -33.5z" />
    <glyph glyph-name="Ugrave" unicode="&#xd9;" horiz-adv-x="558" 
d="M274 -14q-106 0 -165 66.5t-59 187.5v323h25v-323q0 -55 13.5 -97.5t39 -72t62.5 -44.5t84 -15q67 0 111 26t66.5 77.5t22.5 125.5v323h24v-323q0 -123 -57.5 -188.5t-166.5 -65.5zM283 603l-71 101v11h30l57 -106v-6h-16z" />
    <glyph glyph-name="Uacute" unicode="&#xda;" horiz-adv-x="558" 
d="M274 -14q-106 0 -165 66.5t-59 187.5v323h25v-323q0 -55 13.5 -97.5t39 -72t62.5 -44.5t84 -15q67 0 111 26t66.5 77.5t22.5 125.5v323h24v-323q0 -123 -57.5 -188.5t-166.5 -65.5zM286 603h-16v6l57 106h30v-11z" />
    <glyph glyph-name="Ucircumflex" unicode="&#xdb;" horiz-adv-x="558" 
d="M274 -14q-106 0 -165 66.5t-59 187.5v323h25v-323q0 -55 13.5 -97.5t39 -72t62.5 -44.5t84 -15q67 0 111 26t66.5 77.5t22.5 125.5v323h24v-323q0 -123 -57.5 -188.5t-166.5 -65.5zM171 620v6l100 98h14l101 -98v-6h-31l-76 82h-2l-75 -82h-31z" />
    <glyph glyph-name="Udieresis" unicode="&#xdc;" horiz-adv-x="558" 
d="M274 -14q-106 0 -165 66.5t-59 187.5v323h25v-323q0 -55 13.5 -97.5t39 -72t62.5 -44.5t84 -15q67 0 111 26t66.5 77.5t22.5 125.5v323h24v-323q0 -123 -57.5 -188.5t-166.5 -65.5zM213 624q-20 0 -27 10.5t-7 23.5t7 23t27 10t26.5 -10t6.5 -23t-6.5 -23.5t-26.5 -10.5z
M345 624q-20 0 -27 10.5t-7 23.5t7 23t27 10t26.5 -10t6.5 -23t-6.5 -23.5t-26.5 -10.5z" />
    <glyph glyph-name="Yacute" unicode="&#xdd;" horiz-adv-x="413" 
d="M189 207l-194 356h29l177 -322l175 322h28l-194 -356h-21zM186 0v220h27v-220h-27zM214 603h-16v6l57 106h30v-11z" />
    <glyph glyph-name="Thorn" unicode="&#xde;" horiz-adv-x="474" 
d="M96 0h-26v563h26v-563zM90 451h177q91 0 136.5 -42.5t45.5 -127.5q0 -82 -47 -125.5t-135 -43.5h-178v27h178q78 0 117.5 35t39.5 107q0 74 -38.5 109t-118.5 35h-177v26z" />
    <glyph glyph-name="germandbls" unicode="&#xdf;" horiz-adv-x="473" 
d="M274 -10q-27 0 -51.5 6.5t-45 19.5t-35 31.5t-21.5 42.5h25q0 -1 6 -12.5t20.5 -26t39 -25.5t62.5 -11q44 0 79 16t55.5 45t20.5 66q0 40 -21 64.5t-51.5 39.5t-61 26t-51.5 25t-21 37q0 18 13 30t32 21t38.5 19.5t32.5 26t13 40.5q0 22 -9.5 35t-28 20t-45.5 9.5
t-61 2.5h-128v-538h-25v563h153q24 0 53 -1t56 -8t44 -24.5t17 -51.5q0 -31 -13.5 -50.5t-33 -31.5t-39 -20.5t-33 -17.5t-13.5 -23q0 -17 21 -28t51.5 -21.5t61.5 -27t52 -44t21 -72.5q0 -43 -23.5 -77.5t-64 -54.5t-91.5 -20z" />
    <glyph glyph-name="agrave" unicode="&#xe0;" horiz-adv-x="400" 
d="M185 -9q-56 0 -94 28.5t-57 76t-19 104.5q0 60 20 107t58 74.5t92 27.5q27 0 50 -7t41.5 -20t32.5 -30.5t23 -39.5h1v92h27v-404h-21l-5 90h-2q-10 -22 -24 -40t-32.5 -31.5t-41 -20.5t-49.5 -7zM193 19q45 0 76 21t47 61.5t16 97.5q0 62 -17 102t-48 60t-74 20
q-49 0 -82.5 -23.5t-50 -64t-16.5 -93.5q0 -54 17 -95t50.5 -63.5t81.5 -22.5zM204 444l-71 101v11h30l57 -106v-6h-16z" />
    <glyph glyph-name="aacute" unicode="&#xe1;" horiz-adv-x="400" 
d="M185 -9q-56 0 -94 28.5t-57 76t-19 104.5q0 60 20 107t58 74.5t92 27.5q27 0 50 -7t41.5 -20t32.5 -30.5t23 -39.5h1v92h27v-404h-21l-5 90h-2q-10 -22 -24 -40t-32.5 -31.5t-41 -20.5t-49.5 -7zM193 19q45 0 76 21t47 61.5t16 97.5q0 62 -17 102t-48 60t-74 20
q-49 0 -82.5 -23.5t-50 -64t-16.5 -93.5q0 -54 17 -95t50.5 -63.5t81.5 -22.5zM207 444h-16v6l57 106h30v-11z" />
    <glyph glyph-name="acircumflex" unicode="&#xe2;" horiz-adv-x="400" 
d="M185 -9q-56 0 -94 28.5t-57 76t-19 104.5q0 60 20 107t58 74.5t92 27.5q27 0 50 -7t41.5 -20t32.5 -30.5t23 -39.5h1v92h27v-404h-21l-5 90h-2q-10 -22 -24 -40t-32.5 -31.5t-41 -20.5t-49.5 -7zM193 19q45 0 76 21t47 61.5t16 97.5q0 62 -17 102t-48 60t-74 20
q-49 0 -82.5 -23.5t-50 -64t-16.5 -93.5q0 -54 17 -95t50.5 -63.5t81.5 -22.5zM92 461v6l100 98h14l101 -98v-6h-31l-76 82h-2l-75 -82h-31z" />
    <glyph glyph-name="atilde" unicode="&#xe3;" horiz-adv-x="400" 
d="M185 -9q-56 0 -94 28.5t-57 76t-19 104.5q0 60 20 107t58 74.5t92 27.5q27 0 50 -7t41.5 -20t32.5 -30.5t23 -39.5h1v92h27v-404h-21l-5 90h-2q-10 -22 -24 -40t-32.5 -31.5t-41 -20.5t-49.5 -7zM193 19q45 0 76 21t47 61.5t16 97.5q0 62 -17 102t-48 60t-74 20
q-49 0 -82.5 -23.5t-50 -64t-16.5 -93.5q0 -54 17 -95t50.5 -63.5t81.5 -22.5zM101 470q-1 17 1 30t8 23t16 15t25 5q21 0 33.5 -8t21 -18.5t18 -18.5t24.5 -8q18 0 21.5 14t3.5 40h25q1 -16 -1 -30t-8 -23.5t-16 -15t-25 -5.5q-20 0 -33 8t-22 18.5t-18.5 18.5t-23.5 8
q-17 0 -21.5 -14t-3.5 -39h-25z" />
    <glyph glyph-name="adieresis" unicode="&#xe4;" horiz-adv-x="400" 
d="M185 -9q-56 0 -94 28.5t-57 76t-19 104.5q0 60 20 107t58 74.5t92 27.5q27 0 50 -7t41.5 -20t32.5 -30.5t23 -39.5h1v92h27v-404h-21l-5 90h-2q-10 -22 -24 -40t-32.5 -31.5t-41 -20.5t-49.5 -7zM193 19q45 0 76 21t47 61.5t16 97.5q0 62 -17 102t-48 60t-74 20
q-49 0 -82.5 -23.5t-50 -64t-16.5 -93.5q0 -54 17 -95t50.5 -63.5t81.5 -22.5zM134 465q-20 0 -27 10.5t-7 23.5t7 23t27 10t26.5 -10t6.5 -23t-6.5 -23.5t-26.5 -10.5zM266 465q-20 0 -27 10.5t-7 23.5t7 23t27 10t26.5 -10t6.5 -23t-6.5 -23.5t-26.5 -10.5z" />
    <glyph glyph-name="aring" unicode="&#xe5;" horiz-adv-x="400" 
d="M185 -9q-56 0 -94 28.5t-57 76t-19 104.5q0 60 20 107t58 74.5t92 27.5q27 0 50 -7t41.5 -20t32.5 -30.5t23 -39.5h1v92h27v-404h-21l-5 90h-2q-10 -22 -24 -40t-32.5 -31.5t-41 -20.5t-49.5 -7zM193 19q45 0 76 21t47 61.5t16 97.5q0 62 -17 102t-48 60t-74 20
q-49 0 -82.5 -23.5t-50 -64t-16.5 -93.5q0 -54 17 -95t50.5 -63.5t81.5 -22.5zM199 465q-37 0 -60 22t-23 59q0 38 22.5 60.5t60.5 22.5t61 -22.5t23 -60.5q0 -35 -23 -58t-61 -23zM199 484q29 0 45.5 18.5t16.5 44.5t-16.5 44.5t-45.5 18.5t-46 -18.5t-17 -44.5
q0 -27 18.5 -45t44.5 -18z" />
    <glyph glyph-name="ae" unicode="&#xe6;" horiz-adv-x="734" 
d="M152 0q-55 0 -87.5 28t-32.5 74q0 36 17 58.5t45 36.5t61.5 22.5t65.5 15.5q45 10 68.5 17t31.5 16t8 23q0 32 -17.5 53.5t-45 33t-59.5 11.5q-29 0 -57.5 -10.5t-48 -31t-23.5 -52.5h-27q7 40 31 66t58 39t69 13q50 0 93 -24.5t52 -74.5q22 44 62.5 72t100.5 28
q49 0 87 -22t61.5 -62t27.5 -94l1 -25h-337q0 -84 41.5 -135t118.5 -51q56 0 97.5 29.5t51.5 80.5h27q-8 -40 -33 -70.5t-62 -47.5t-81 -17q-53 0 -91 22.5t-61 59t-31 79.5q-4 -37 -20 -66.5t-40.5 -50.5t-55.5 -32.5t-66 -11.5zM152 26q60 0 98.5 29.5t57 79t18.5 108.5
q-13 -10 -39.5 -16.5t-59.5 -14.5q-45 -10 -83.5 -21t-61.5 -31t-23 -57q0 -34 25 -55.5t68 -21.5zM360 236h306q-1 23 -10 49.5t-27 50t-46 38.5t-66 15q-34 0 -61 -11.5t-47 -32t-32.5 -48.5t-16.5 -61z" />
    <glyph glyph-name="ccedilla" unicode="&#xe7;" horiz-adv-x="435" 
d="M215 -10q-57 0 -99.5 24.5t-66.5 70t-24 107.5q2 62 26 110t67 75t100 27q46 0 82.5 -17t61 -47t33.5 -71h-26q-11 50 -52 79t-99 29q-49 0 -86 -23.5t-58 -65.5t-22 -97q0 -79 44.5 -126.5t118.5 -47.5q59 0 101 29t53 79h26q-9 -40 -34.5 -70.5t-62.5 -47.5t-83 -17z
M142 -116l15 18q14 -16 35 -25t42 -9q25 0 41.5 11t16.5 33q0 17 -12 24t-28 7q-15 0 -32.5 -6t-31.5 -17l-15 16l37 73l21 -9l-41 -62q11 12 29 19.5t37 7.5q23 0 41.5 -12t18.5 -40q0 -33 -26.5 -50.5t-61.5 -17.5q-22 0 -45.5 10t-40.5 29z" />
    <glyph glyph-name="egrave" unicode="&#xe8;" horiz-adv-x="439" 
d="M217 -10q-63 0 -105 31t-62.5 80t-19.5 101q1 51 22 97.5t62.5 75.5t102.5 29q49 0 87 -22t61.5 -62t27.5 -94q1 -6 1 -12.5v-12.5h-337q0 -84 41.5 -135t118.5 -51q56 0 97.5 29.5t51.5 80.5h27q-8 -40 -33 -70.5t-62 -47.5t-81 -17zM60 226h306q-1 23 -10 49.5t-27 50
t-46 38.5t-66 15q-34 0 -61 -11.5t-47 -32t-32.5 -48.5t-16.5 -61zM224 444l-71 101v11h30l57 -106v-6h-16z" />
    <glyph glyph-name="eacute" unicode="&#xe9;" horiz-adv-x="439" 
d="M217 -10q-63 0 -105 31t-62.5 80t-19.5 101q1 51 22 97.5t62.5 75.5t102.5 29q49 0 87 -22t61.5 -62t27.5 -94q1 -6 1 -12.5v-12.5h-337q0 -84 41.5 -135t118.5 -51q56 0 97.5 29.5t51.5 80.5h27q-8 -40 -33 -70.5t-62 -47.5t-81 -17zM60 226h306q-1 23 -10 49.5t-27 50
t-46 38.5t-66 15q-34 0 -61 -11.5t-47 -32t-32.5 -48.5t-16.5 -61zM227 444h-16v6l57 106h30v-11z" />
    <glyph glyph-name="ecircumflex" unicode="&#xea;" horiz-adv-x="439" 
d="M217 -10q-63 0 -105 31t-62.5 80t-19.5 101q1 51 22 97.5t62.5 75.5t102.5 29q49 0 87 -22t61.5 -62t27.5 -94q1 -6 1 -12.5v-12.5h-337q0 -84 41.5 -135t118.5 -51q56 0 97.5 29.5t51.5 80.5h27q-8 -40 -33 -70.5t-62 -47.5t-81 -17zM60 226h306q-1 23 -10 49.5t-27 50
t-46 38.5t-66 15q-34 0 -61 -11.5t-47 -32t-32.5 -48.5t-16.5 -61zM112 461v6l100 98h14l101 -98v-6h-31l-76 82h-2l-75 -82h-31z" />
    <glyph glyph-name="edieresis" unicode="&#xeb;" horiz-adv-x="439" 
d="M217 -10q-63 0 -105 31t-62.5 80t-19.5 101q1 51 22 97.5t62.5 75.5t102.5 29q49 0 87 -22t61.5 -62t27.5 -94q1 -6 1 -12.5v-12.5h-337q0 -84 41.5 -135t118.5 -51q56 0 97.5 29.5t51.5 80.5h27q-8 -40 -33 -70.5t-62 -47.5t-81 -17zM60 226h306q-1 23 -10 49.5t-27 50
t-46 38.5t-66 15q-34 0 -61 -11.5t-47 -32t-32.5 -48.5t-16.5 -61zM154 465q-20 0 -27 10.5t-7 23.5t7 23t27 10t26.5 -10t6.5 -23t-6.5 -23.5t-26.5 -10.5zM286 465q-20 0 -27 10.5t-7 23.5t7 23t27 10t26.5 -10t6.5 -23t-6.5 -23.5t-26.5 -10.5z" />
    <glyph glyph-name="igrave" unicode="&#xec;" horiz-adv-x="138" 
d="M55 0v404h26v-404h-26zM72 444l-71 101v11h30l57 -106v-6h-16z" />
    <glyph glyph-name="iacute" unicode="&#xed;" horiz-adv-x="138" 
d="M55 0v404h26v-404h-26zM75 444h-16v6l57 106h30v-11z" />
    <glyph glyph-name="icircumflex" unicode="&#xee;" horiz-adv-x="138" 
d="M55 0v404h26v-404h-26zM-40 461v6l100 98h14l101 -98v-6h-31l-76 82h-2l-75 -82h-31z" />
    <glyph glyph-name="idieresis" unicode="&#xef;" horiz-adv-x="138" 
d="M55 0v404h26v-404h-26zM2 465q-20 0 -27 10.5t-7 23.5t7 23t27 10t26.5 -10t6.5 -23t-6.5 -23.5t-26.5 -10.5zM134 465q-20 0 -27 10.5t-7 23.5t7 23t27 10t26.5 -10t6.5 -23t-6.5 -23.5t-26.5 -10.5z" />
    <glyph glyph-name="eth" unicode="&#xf0;" horiz-adv-x="472" 
d="M244 -10q-67 0 -112.5 31.5t-68.5 80t-23 99.5q0 48 19.5 90t58.5 68.5t97 26.5q43 0 75.5 -16.5t55 -40.5t36.5 -48t20.5 -40.5t6.5 -17.5h1q-4 41 -16.5 83t-33 82t-47.5 74t-58.5 59.5t-67.5 38.5l8 23q56 -20 100 -59.5t74.5 -91.5t46.5 -109t16 -112q0 -60 -20 -110
t-61.5 -80.5t-106.5 -30.5zM403 155q-1 67 -30 112.5t-72.5 68.5t-88.5 23q-39 0 -72.5 -17t-54 -52.5t-20.5 -91.5q0 -59 26.5 -100.5t68 -63.5t84.5 -22q53 0 99.5 35t59.5 108zM243 426l-12 21l170 103l12 -22z" />
    <glyph glyph-name="ntilde" unicode="&#xf1;" horiz-adv-x="426" 
d="M40 0v404h21l5 -114h2q3 8 11.5 26.5t26 38.5t46 34.5t70.5 14.5q41 0 69 -11t46 -30.5t27.5 -45.5t13 -55t3.5 -60v-202h-26v202q0 55 -12.5 94.5t-41 60.5t-77.5 21q-52 0 -87 -25.5t-53 -68t-18 -94.5v-190h-26zM114 470q-1 17 1 30t8 23t16 15t25 5q21 0 33.5 -8
t21 -18.5t18 -18.5t24.5 -8q18 0 21.5 14t3.5 40h25q1 -16 -1 -30t-8 -23.5t-16 -15t-25 -5.5q-20 0 -33 8t-22 18.5t-18.5 18.5t-23.5 8q-17 0 -21.5 -14t-3.5 -39h-25z" />
    <glyph glyph-name="ograve" unicode="&#xf2;" horiz-adv-x="442" 
d="M214 -10q-61 0 -102 26.5t-61.5 73t-20.5 106.5q0 61 20.5 108t61.5 73.5t102 26.5q89 0 136 -57t47 -151q0 -58 -19.5 -105t-60 -74t-103.5 -27zM214 16q60 0 93.5 27t47.5 68.5t14 84.5q0 44 -14 86t-47.5 69t-93.5 27q-59 0 -93.5 -27t-48.5 -69t-14 -86
q0 -43 14 -84.5t48.5 -68.5t93.5 -27zM225 444l-71 101v11h30l57 -106v-6h-16z" />
    <glyph glyph-name="oacute" unicode="&#xf3;" horiz-adv-x="442" 
d="M214 -10q-61 0 -102 26.5t-61.5 73t-20.5 106.5q0 61 20.5 108t61.5 73.5t102 26.5q89 0 136 -57t47 -151q0 -58 -19.5 -105t-60 -74t-103.5 -27zM214 16q60 0 93.5 27t47.5 68.5t14 84.5q0 44 -14 86t-47.5 69t-93.5 27q-59 0 -93.5 -27t-48.5 -69t-14 -86
q0 -43 14 -84.5t48.5 -68.5t93.5 -27zM228 444h-16v6l57 106h30v-11z" />
    <glyph glyph-name="ocircumflex" unicode="&#xf4;" horiz-adv-x="442" 
d="M214 -10q-61 0 -102 26.5t-61.5 73t-20.5 106.5q0 61 20.5 108t61.5 73.5t102 26.5q89 0 136 -57t47 -151q0 -58 -19.5 -105t-60 -74t-103.5 -27zM214 16q60 0 93.5 27t47.5 68.5t14 84.5q0 44 -14 86t-47.5 69t-93.5 27q-59 0 -93.5 -27t-48.5 -69t-14 -86
q0 -43 14 -84.5t48.5 -68.5t93.5 -27zM113 461v6l100 98h14l101 -98v-6h-31l-76 82h-2l-75 -82h-31z" />
    <glyph glyph-name="otilde" unicode="&#xf5;" horiz-adv-x="442" 
d="M214 -10q-61 0 -102 26.5t-61.5 73t-20.5 106.5q0 61 20.5 108t61.5 73.5t102 26.5q89 0 136 -57t47 -151q0 -58 -19.5 -105t-60 -74t-103.5 -27zM214 16q60 0 93.5 27t47.5 68.5t14 84.5q0 44 -14 86t-47.5 69t-93.5 27q-59 0 -93.5 -27t-48.5 -69t-14 -86
q0 -43 14 -84.5t48.5 -68.5t93.5 -27zM122 470q-1 17 1 30t8 23t16 15t25 5q21 0 33.5 -8t21 -18.5t18 -18.5t24.5 -8q18 0 21.5 14t3.5 40h25q1 -16 -1 -30t-8 -23.5t-16 -15t-25 -5.5q-20 0 -33 8t-22 18.5t-18.5 18.5t-23.5 8q-17 0 -21.5 -14t-3.5 -39h-25z" />
    <glyph glyph-name="odieresis" unicode="&#xf6;" horiz-adv-x="442" 
d="M214 -10q-61 0 -102 26.5t-61.5 73t-20.5 106.5q0 61 20.5 108t61.5 73.5t102 26.5q89 0 136 -57t47 -151q0 -58 -19.5 -105t-60 -74t-103.5 -27zM214 16q60 0 93.5 27t47.5 68.5t14 84.5q0 44 -14 86t-47.5 69t-93.5 27q-59 0 -93.5 -27t-48.5 -69t-14 -86
q0 -43 14 -84.5t48.5 -68.5t93.5 -27zM155 465q-20 0 -27 10.5t-7 23.5t7 23t27 10t26.5 -10t6.5 -23t-6.5 -23.5t-26.5 -10.5zM287 465q-20 0 -27 10.5t-7 23.5t7 23t27 10t26.5 -10t6.5 -23t-6.5 -23.5t-26.5 -10.5z" />
    <glyph glyph-name="divide" unicode="&#xf7;" horiz-adv-x="350" 
d="M64 211v26h222v-26h-222zM176 274q-13 0 -20.5 9t-7.5 23t7.5 23t20.5 9q14 0 21.5 -9t7.5 -23q0 -13 -7 -22.5t-22 -9.5zM176 111q-13 0 -20.5 9t-7.5 23t7.5 23t20.5 9q14 0 21.5 -9t7.5 -23q0 -13 -7 -22.5t-22 -9.5z" />
    <glyph glyph-name="oslash" unicode="&#xf8;" horiz-adv-x="437" 
d="M57 -22l287 456l21 -12l-287 -456zM214 -10q-61 0 -102 26.5t-61.5 73t-20.5 106.5q0 61 20.5 108t61.5 73.5t102 26.5q89 0 136 -57t47 -151q0 -58 -19.5 -105t-60 -74t-103.5 -27zM214 16q60 0 93.5 27t47.5 68.5t14 84.5q0 44 -14 86t-47.5 69t-93.5 27
q-59 0 -93.5 -27t-48.5 -69t-14 -86q0 -43 14 -84.5t48.5 -68.5t93.5 -27z" />
    <glyph glyph-name="ugrave" unicode="&#xf9;" horiz-adv-x="430" 
d="M199 -10q-37 0 -64.5 10t-46 28t-29.5 43t-16 55.5t-5 65.5v212h27v-212q0 -50 11 -90t40 -63t83 -23q51 0 82.5 24t47.5 62.5t19 81.5v220h27v-404h-21l-5 103h-2q-6 -19 -18 -38.5t-30.5 -36.5t-43.5 -27.5t-56 -10.5zM219 444l-71 101v11h30l57 -106v-6h-16z" />
    <glyph glyph-name="uacute" unicode="&#xfa;" horiz-adv-x="430" 
d="M199 -10q-37 0 -64.5 10t-46 28t-29.5 43t-16 55.5t-5 65.5v212h27v-212q0 -50 11 -90t40 -63t83 -23q51 0 82.5 24t47.5 62.5t19 81.5v220h27v-404h-21l-5 103h-2q-6 -19 -18 -38.5t-30.5 -36.5t-43.5 -27.5t-56 -10.5zM222 444h-16v6l57 106h30v-11z" />
    <glyph glyph-name="ucircumflex" unicode="&#xfb;" horiz-adv-x="430" 
d="M199 -10q-37 0 -64.5 10t-46 28t-29.5 43t-16 55.5t-5 65.5v212h27v-212q0 -50 11 -90t40 -63t83 -23q51 0 82.5 24t47.5 62.5t19 81.5v220h27v-404h-21l-5 103h-2q-6 -19 -18 -38.5t-30.5 -36.5t-43.5 -27.5t-56 -10.5zM107 461v6l100 98h14l101 -98v-6h-31l-76 82h-2
l-75 -82h-31z" />
    <glyph glyph-name="udieresis" unicode="&#xfc;" horiz-adv-x="430" 
d="M199 -10q-37 0 -64.5 10t-46 28t-29.5 43t-16 55.5t-5 65.5v212h27v-212q0 -50 11 -90t40 -63t83 -23q51 0 82.5 24t47.5 62.5t19 81.5v220h27v-404h-21l-5 103h-2q-6 -19 -18 -38.5t-30.5 -36.5t-43.5 -27.5t-56 -10.5zM149 465q-20 0 -27 10.5t-7 23.5t7 23t27 10
t26.5 -10t6.5 -23t-6.5 -23.5t-26.5 -10.5zM281 465q-20 0 -27 10.5t-7 23.5t7 23t27 10t26.5 -10t6.5 -23t-6.5 -23.5t-26.5 -10.5z" />
    <glyph glyph-name="yacute" unicode="&#xfd;" horiz-adv-x="374" 
d="M-5 -174v25h49q13 0 21.5 5.5t17 19.5t20.5 39l58 125l-159 364h29l145 -332l153 332h30l-233 -497q-12 -25 -21.5 -41t-18.5 -25t-20 -12t-25 -3h-46zM194 444h-16v6l57 106h30v-11z" />
    <glyph glyph-name="thorn" unicode="&#xfe;" horiz-adv-x="457" 
d="M239 -10q-40 0 -68.5 13.5t-47.5 33.5t-29.5 38t-14.5 28t-2 4v179q-1 -3 6 14.5t24.5 41.5t49.5 43t81 19q62 0 103 -30t62 -76.5t21 -98.5t-20 -100t-61 -78.5t-104 -30.5zM50 -199v762h28v-434v-328h-28zM242 15q53 0 87.5 27t51 69t16.5 87q0 46 -18.5 87t-55 67.5
t-89.5 26.5q-43 0 -79 -24t-57 -64.5t-21 -92.5q0 -51 22 -92.5t59.5 -66t83.5 -24.5z" />
    <glyph glyph-name="ydieresis" unicode="&#xff;" horiz-adv-x="374" 
d="M-5 -174v25h49q13 0 21.5 5.5t17 19.5t20.5 39l58 125l-159 364h29l145 -332l153 332h30l-233 -497q-12 -25 -21.5 -41t-18.5 -25t-20 -12t-25 -3h-46zM121 465q-20 0 -27 10.5t-7 23.5t7 23t27 10t26.5 -10t6.5 -23t-6.5 -23.5t-26.5 -10.5zM253 465q-20 0 -27 10.5
t-7 23.5t7 23t27 10t26.5 -10t6.5 -23t-6.5 -23.5t-26.5 -10.5z" />
    <glyph glyph-name="Amacron" unicode="&#x100;" horiz-adv-x="516" 
d="M20 0l216 563h44l218 -563h-28l-211 550l-213 -550h-26zM115 194l11 27h265l11 -27h-287zM147 626v26h222v-26h-222z" />
    <glyph glyph-name="amacron" unicode="&#x101;" horiz-adv-x="400" 
d="M185 -9q-56 0 -94 28.5t-57 76t-19 104.5q0 60 20 107t58 74.5t92 27.5q27 0 50 -7t41.5 -20t32.5 -30.5t23 -39.5h1v92h27v-404h-21l-5 90h-2q-10 -22 -24 -40t-32.5 -31.5t-41 -20.5t-49.5 -7zM193 19q45 0 76 21t47 61.5t16 97.5q0 62 -17 102t-48 60t-74 20
q-49 0 -82.5 -23.5t-50 -64t-16.5 -93.5q0 -54 17 -95t50.5 -63.5t81.5 -22.5zM89 467v26h222v-26h-222z" />
    <glyph glyph-name="Abreve" unicode="&#x102;" horiz-adv-x="516" 
d="M20 0l216 563h44l218 -563h-28l-211 550l-213 -550h-26zM115 194l11 27h265l11 -27h-287zM259 618q-47 0 -75 21t-28 55h22q0 -34 24 -42.5t56 -8.5t55.5 8.5t23.5 42.5h23q0 -34 -27 -55t-74 -21z" />
    <glyph glyph-name="abreve" unicode="&#x103;" horiz-adv-x="400" 
d="M185 -9q-56 0 -94 28.5t-57 76t-19 104.5q0 60 20 107t58 74.5t92 27.5q27 0 50 -7t41.5 -20t32.5 -30.5t23 -39.5h1v92h27v-404h-21l-5 90h-2q-10 -22 -24 -40t-32.5 -31.5t-41 -20.5t-49.5 -7zM193 19q45 0 76 21t47 61.5t16 97.5q0 62 -17 102t-48 60t-74 20
q-49 0 -82.5 -23.5t-50 -64t-16.5 -93.5q0 -54 17 -95t50.5 -63.5t81.5 -22.5zM201 459q-47 0 -75 21t-28 55h22q0 -34 24 -42.5t56 -8.5t55.5 8.5t23.5 42.5h23q0 -34 -27 -55t-74 -21z" />
    <glyph glyph-name="Aogonek" unicode="&#x104;" horiz-adv-x="516" 
d="M448 -198q-24 0 -41 10t-26 27t-9 38q0 26 12 47t30.5 38t36.5 28t30 17l12 6l5 -13l-15.5 -8.5t-35.5 -25t-35.5 -39t-15.5 -50.5q0 -22 13.5 -36.5t38.5 -14.5q21 0 31.5 8.5t14.5 17l4 8.5l22 -15l-7.5 -10.5t-23.5 -21.5t-41 -11zM20 0l216 563h44l218 -563h-28
l-211 550l-213 -550h-26zM115 194l11 27h265l11 -27h-287z" />
    <glyph glyph-name="aogonek" unicode="&#x105;" horiz-adv-x="400" 
d="M185 -9q-56 0 -94 28.5t-57 76t-19 104.5q0 60 20 107t58 74.5t92 27.5q27 0 50 -7t41.5 -20t32.5 -30.5t23 -39.5h1v92h27v-404h-21l-5 90h-2q-10 -22 -24 -40t-32.5 -31.5t-41 -20.5t-49.5 -7zM193 19q45 0 76 21t47 61.5t16 97.5q0 62 -17 102t-48 60t-74 20
q-49 0 -82.5 -23.5t-50 -64t-16.5 -93.5q0 -54 17 -95t50.5 -63.5t81.5 -22.5zM315 -199q-24 0 -41 10t-26 27t-9 38q0 26 12 47t30 38t36.5 28t30.5 17l12 6v-13l-14.5 -8.5t-34 -25t-34 -39t-14.5 -50.5q0 -22 13.5 -36.5t38.5 -14.5q21 0 31.5 8.5t14.5 17l4 8.5l22 -15
l-7.5 -10.5t-23.5 -21.5t-41 -11z" />
    <glyph glyph-name="Cacute" unicode="&#x106;" horiz-adv-x="590" 
d="M297 -10q-76 0 -136.5 33t-95.5 98t-35 161q0 98 34 162.5t95.5 96.5t141.5 32q62 0 112 -22.5t84.5 -67.5t47.5 -113h-28q-11 57 -40 97t-73.5 61t-102.5 21q-111 0 -177.5 -68.5t-66.5 -198.5q0 -133 65.5 -200.5t174.5 -67.5q64 0 110.5 21.5t75 61t38.5 93.5h29
q-12 -66 -46 -110.5t-86.5 -67t-120.5 -22.5zM302 603h-16v6l57 106h30v-11z" />
    <glyph glyph-name="cacute" unicode="&#x107;" horiz-adv-x="435" 
d="M215 -10q-57 0 -99.5 24.5t-66.5 70t-24 107.5q2 62 26 110t67 75t100 27q46 0 82.5 -17t61 -47t33.5 -71h-26q-11 50 -52 79t-99 29q-49 0 -86 -23.5t-58 -65.5t-22 -97q0 -79 44.5 -126.5t118.5 -47.5q59 0 101 29t53 79h26q-9 -40 -34.5 -70.5t-62.5 -47.5t-83 -17z
M225 444h-16v6l57 106h30v-11z" />
    <glyph glyph-name="Cdotaccent" unicode="&#x10a;" horiz-adv-x="590" 
d="M297 -10q-76 0 -136.5 33t-95.5 98t-35 161q0 98 34 162.5t95.5 96.5t141.5 32q62 0 112 -22.5t84.5 -67.5t47.5 -113h-28q-11 57 -40 97t-73.5 61t-102.5 21q-111 0 -177.5 -68.5t-66.5 -198.5q0 -133 65.5 -200.5t174.5 -67.5q64 0 110.5 21.5t75 61t38.5 93.5h29
q-12 -66 -46 -110.5t-86.5 -67t-120.5 -22.5zM295 632q-16 0 -22 8.5t-6 19.5t6 19t22 8q17 0 22 -8t5 -19t-5 -19.5t-22 -8.5z" />
    <glyph glyph-name="cdotaccent" unicode="&#x10b;" horiz-adv-x="435" 
d="M215 -10q-57 0 -99.5 24.5t-66.5 70t-24 107.5q2 62 26 110t67 75t100 27q46 0 82.5 -17t61 -47t33.5 -71h-26q-11 50 -52 79t-99 29q-49 0 -86 -23.5t-58 -65.5t-22 -97q0 -79 44.5 -126.5t118.5 -47.5q59 0 101 29t53 79h26q-9 -40 -34.5 -70.5t-62.5 -47.5t-83 -17z
M218 473q-16 0 -22 8.5t-6 19.5t6 19t22 8q17 0 22 -8t5 -19t-5 -19.5t-22 -8.5z" />
    <glyph glyph-name="Ccaron" unicode="&#x10c;" horiz-adv-x="590" 
d="M297 -10q-76 0 -136.5 33t-95.5 98t-35 161q0 98 34 162.5t95.5 96.5t141.5 32q62 0 112 -22.5t84.5 -67.5t47.5 -113h-28q-11 57 -40 97t-73.5 61t-102.5 21q-111 0 -177.5 -68.5t-66.5 -198.5q0 -133 65.5 -200.5t174.5 -67.5q64 0 110.5 21.5t75 61t38.5 93.5h29
q-12 -66 -46 -110.5t-86.5 -67t-120.5 -22.5zM287 603l-100 106v6h31l75 -90h2l76 90h31v-6l-101 -106h-14z" />
    <glyph glyph-name="ccaron" unicode="&#x10d;" horiz-adv-x="435" 
d="M215 -10q-57 0 -99.5 24.5t-66.5 70t-24 107.5q2 62 26 110t67 75t100 27q46 0 82.5 -17t61 -47t33.5 -71h-26q-11 50 -52 79t-99 29q-49 0 -86 -23.5t-58 -65.5t-22 -97q0 -79 44.5 -126.5t118.5 -47.5q59 0 101 29t53 79h26q-9 -40 -34.5 -70.5t-62.5 -47.5t-83 -17z
M210 444l-100 106v6h31l75 -90h2l76 90h31v-6l-101 -106h-14z" />
    <glyph glyph-name="Dcaron" unicode="&#x10e;" horiz-adv-x="569" 
d="M97 25v513h116q90 0 157 -27.5t104 -84t37 -144.5q0 -79 -21 -129.5t-60.5 -78.5t-94.5 -38.5t-122 -10.5h-39.5h-76.5zM539 282q0 94 -41 156t-114 93.5t-171 31.5h-45.5h-97.5v-563h95h48q98 0 171 24t114 85.5t41 172.5zM257 603l-100 106v6h31l75 -90h2l76 90h31v-6
l-101 -106h-14z" />
    <glyph glyph-name="dcaron" unicode="&#x10f;" horiz-adv-x="511" 
d="M235 -10q-57 0 -98.5 28.5t-64 75.5t-22.5 104t23 104t64.5 74.5t98.5 27.5q42 0 71.5 -14.5t47.5 -35.5t27 -39.5t12 -26.5h2v275h27v-563h-21l-5 107h-2q-3 -7 -13 -26t-29 -40t-48 -36t-70 -15zM232 18q42 0 79 20.5t60 61t23 98.5q0 57 -21.5 97t-56.5 60.5t-76 20.5
q-53 0 -89.5 -25.5t-55 -66t-18.5 -86.5q0 -45 16.5 -86.5t51 -67.5t87.5 -26zM465 441l37 134h30l-51 -134h-16z" />
    <glyph glyph-name="Dcroat" unicode="&#x110;" horiz-adv-x="600" 
d="M70 0v563h97.5h45.5q98 0 171 -31.5t114 -93.5t41 -156q0 -111 -41 -172.5t-114 -85.5t-171 -24h-48h-95zM0 274v25h293v-25h-293zM97 25h76.5h39.5q67 0 122 10.5t94.5 38.5t60.5 78.5t21 129.5q0 88 -37 144.5t-104 84t-157 27.5h-116v-513z" />
    <glyph glyph-name="dcroat" unicode="&#x111;" horiz-adv-x="473" 
d="M235 -10q-57 0 -98.5 28.5t-64 75.5t-22.5 104t23 104t64.5 74.5t98.5 27.5q42 0 71.5 -14.5t47.5 -35.5t27 -39.5t12 -26.5h2v275h28v-563h-22l-5 107h-2q-3 -7 -13 -26t-29 -40t-48 -36t-70 -15zM232 18q42 0 79 20.5t60 61t23 98.5q0 57 -21.5 97t-56.5 60.5t-76 20.5
q-53 0 -89.5 -25.5t-55 -66t-18.5 -86.5q0 -45 16.5 -86.5t51 -67.5t87.5 -26zM259 475v25h216v-25h-216z" />
    <glyph glyph-name="Emacron" unicode="&#x112;" horiz-adv-x="457" 
d="M60 0v563h353v-26h-326v-239h265v-26h-265v-247h335v-25h-362zM118 626v26h222v-26h-222z" />
    <glyph glyph-name="emacron" unicode="&#x113;" horiz-adv-x="439" 
d="M217 -10q-63 0 -105 31t-62.5 80t-19.5 101q1 51 22 97.5t62.5 75.5t102.5 29q49 0 87 -22t61.5 -62t27.5 -94q1 -6 1 -12.5v-12.5h-337q0 -84 41.5 -135t118.5 -51q56 0 97.5 29.5t51.5 80.5h27q-8 -40 -33 -70.5t-62 -47.5t-81 -17zM60 226h306q-1 23 -10 49.5t-27 50
t-46 38.5t-66 15q-34 0 -61 -11.5t-47 -32t-32.5 -48.5t-16.5 -61zM109 467v26h222v-26h-222z" />
    <glyph glyph-name="Edotaccent" unicode="&#x116;" horiz-adv-x="457" 
d="M60 0v563h353v-26h-326v-239h265v-26h-265v-247h335v-25h-362zM229 632q-16 0 -22 8.5t-6 19.5t6 19t22 8q17 0 22 -8t5 -19t-5 -19.5t-22 -8.5z" />
    <glyph glyph-name="edotaccent" unicode="&#x117;" horiz-adv-x="439" 
d="M217 -10q-63 0 -105 31t-62.5 80t-19.5 101q1 51 22 97.5t62.5 75.5t102.5 29q49 0 87 -22t61.5 -62t27.5 -94q1 -6 1 -12.5v-12.5h-337q0 -84 41.5 -135t118.5 -51q56 0 97.5 29.5t51.5 80.5h27q-8 -40 -33 -70.5t-62 -47.5t-81 -17zM60 226h306q-1 23 -10 49.5t-27 50
t-46 38.5t-66 15q-34 0 -61 -11.5t-47 -32t-32.5 -48.5t-16.5 -61zM220 473q-16 0 -22 8.5t-6 19.5t6 19t22 8q17 0 22 -8t5 -19t-5 -19.5t-22 -8.5z" />
    <glyph glyph-name="Eogonek" unicode="&#x118;" horiz-adv-x="457" 
d="M60 0v563h353v-26h-326v-239h265v-26h-265v-247h335v-25h-362zM372 -197q-24 0 -41 10t-26 27t-9 38q0 26 12 47t30 38t36.5 28t30.5 17l12 6v-13l-14.5 -8.5t-34 -25t-34 -39t-14.5 -50.5q0 -22 13.5 -36.5t38.5 -14.5q21 0 31.5 8.5t14.5 17l4 8.5l22 -15l-7.5 -10.5
t-23.5 -21.5t-41 -11z" />
    <glyph glyph-name="eogonek" unicode="&#x119;" horiz-adv-x="439" 
d="M228 -199q-24 0 -41 10t-26 27t-9 38q0 26 12 47t30 38t36.5 28t30.5 17l12 6v-13l-14.5 -8.5t-34 -25t-34 -39t-14.5 -50.5q0 -22 13.5 -36.5t38.5 -14.5q21 0 31.5 8.5t14.5 17l4 8.5l22 -15l-7.5 -10.5t-23.5 -21.5t-41 -11zM217 -10q-63 0 -105 31t-62.5 80
t-19.5 101q1 51 22 97.5t62.5 75.5t102.5 29q49 0 87 -22t61.5 -62t27.5 -94q1 -6 1 -12.5v-12.5h-337q0 -84 41.5 -135t118.5 -51q56 0 97.5 29.5t51.5 80.5h27q-8 -40 -33 -70.5t-62 -47.5t-81 -17zM60 226h306q-1 23 -10 49.5t-27 50t-46 38.5t-66 15q-34 0 -61 -11.5
t-47 -32t-32.5 -48.5t-16.5 -61z" />
    <glyph glyph-name="Ecaron" unicode="&#x11a;" horiz-adv-x="457" 
d="M60 0v563h353v-26h-326v-239h265v-26h-265v-247h335v-25h-362zM221 603l-100 106v6h31l75 -90h2l76 90h31v-6l-101 -106h-14z" />
    <glyph glyph-name="ecaron" unicode="&#x11b;" horiz-adv-x="439" 
d="M217 -10q-63 0 -105 31t-62.5 80t-19.5 101q1 51 22 97.5t62.5 75.5t102.5 29q49 0 87 -22t61.5 -62t27.5 -94q1 -6 1 -12.5v-12.5h-337q0 -84 41.5 -135t118.5 -51q56 0 97.5 29.5t51.5 80.5h27q-8 -40 -33 -70.5t-62 -47.5t-81 -17zM60 226h306q-1 23 -10 49.5t-27 50
t-46 38.5t-66 15q-34 0 -61 -11.5t-47 -32t-32.5 -48.5t-16.5 -61zM212 444l-100 106v6h31l75 -90h2l76 90h31v-6l-101 -106h-14z" />
    <glyph glyph-name="Gbreve" unicode="&#x11e;" horiz-adv-x="596" 
d="M291 -14q-80 0 -138.5 35t-90.5 101t-32 157q0 92 32 158t92.5 101t143.5 35q98 0 163.5 -49t81.5 -144h-25q-12 57 -41 94t-73.5 55.5t-105.5 18.5q-118 0 -181 -71.5t-63 -197.5t63.5 -197.5t175.5 -71.5q66 0 115 25.5t77.5 74t31.5 116.5h-188v25h226v-251h-22
l-8 150h-2q-4 -22 -19 -50t-42.5 -54t-69.5 -43t-101 -17zM299 618q-47 0 -75 21t-28 55h22q0 -34 24 -42.5t56 -8.5t55.5 8.5t23.5 42.5h23q0 -34 -27 -55t-74 -21z" />
    <glyph glyph-name="gbreve" unicode="&#x11f;" horiz-adv-x="433" 
d="M125 -152v25h226v234h-2q-3 -7 -13 -26t-29 -40t-48 -36t-70 -15q-57 0 -98.5 28.5t-64 75.5t-22.5 104t22.5 104t64.5 74.5t99 27.5q42 0 71.5 -14.5t47.5 -35.5t27 -39.5t12 -26.5h2v116h28v-509q0 -10 -1.5 -21t-8.5 -18.5t-24 -7.5h-219zM186 18q42 0 79 20.5t60 61
t23 98.5q0 57 -21.5 97t-56.5 60.5t-76 20.5q-53 0 -89.5 -25.5t-55 -66t-18.5 -86.5q0 -45 16.5 -86.5t51 -67.5t87.5 -26zM218 459q-47 0 -75 21t-28 55h22q0 -34 24 -42.5t56 -8.5t55.5 8.5t23.5 42.5h23q0 -34 -27 -55t-74 -21z" />
    <glyph glyph-name="Gdotaccent" unicode="&#x120;" horiz-adv-x="596" 
d="M291 -14q-80 0 -138.5 35t-90.5 101t-32 157q0 92 32 158t92.5 101t143.5 35q98 0 163.5 -49t81.5 -144h-25q-12 57 -41 94t-73.5 55.5t-105.5 18.5q-118 0 -181 -71.5t-63 -197.5t63.5 -197.5t175.5 -71.5q66 0 115 25.5t77.5 74t31.5 116.5h-188v25h226v-251h-22
l-8 150h-2q-4 -22 -19 -50t-42.5 -54t-69.5 -43t-101 -17zM298 632q-16 0 -22 8.5t-6 19.5t6 19t22 8q17 0 22 -8t5 -19t-5 -19.5t-22 -8.5z" />
    <glyph glyph-name="gdotaccent" unicode="&#x121;" horiz-adv-x="433" 
d="M125 -152v25h226v234h-2q-3 -7 -13 -26t-29 -40t-48 -36t-70 -15q-57 0 -98.5 28.5t-64 75.5t-22.5 104t22.5 104t64.5 74.5t99 27.5q42 0 71.5 -14.5t47.5 -35.5t27 -39.5t12 -26.5h2v116h28v-509q0 -10 -1.5 -21t-8.5 -18.5t-24 -7.5h-219zM186 18q42 0 79 20.5t60 61
t23 98.5q0 57 -21.5 97t-56.5 60.5t-76 20.5q-53 0 -89.5 -25.5t-55 -66t-18.5 -86.5q0 -45 16.5 -86.5t51 -67.5t87.5 -26zM217 473q-16 0 -22 8.5t-6 19.5t6 19t22 8q17 0 22 -8t5 -19t-5 -19.5t-22 -8.5z" />
    <glyph glyph-name="uni0122" unicode="&#x122;" horiz-adv-x="596" 
d="M291 -14q-80 0 -138.5 35t-90.5 101t-32 157q0 92 32 158t92.5 101t143.5 35q98 0 163.5 -49t81.5 -144h-25q-12 57 -41 94t-73.5 55.5t-105.5 18.5q-118 0 -181 -71.5t-63 -197.5t63.5 -197.5t175.5 -71.5q66 0 115 25.5t77.5 74t31.5 116.5h-188v25h226v-251h-22
l-8 150h-2q-4 -22 -19 -50t-42.5 -54t-69.5 -43t-101 -17zM269 -185v30h11q23 0 26.5 14t3.5 29q-16 -4 -25.5 3.5t-9.5 26.5q0 11 5 19.5t21 8.5q17 0 21.5 -9.5t4.5 -29.5q0 -31 -3.5 -51.5t-13 -30.5t-27.5 -10h-14z" />
    <glyph glyph-name="uni0123" unicode="&#x123;" horiz-adv-x="433" 
d="M125 -152v25h226v234h-2q-3 -7 -13 -26t-29 -40t-48 -36t-70 -15q-57 0 -98.5 28.5t-64 75.5t-22.5 104t22.5 104t64.5 74.5t99 27.5q42 0 71.5 -14.5t47.5 -35.5t27 -39.5t12 -26.5h2v116h28v-509q0 -10 -1.5 -21t-8.5 -18.5t-24 -7.5h-219zM186 18q42 0 79 20.5t60 61
t23 98.5q0 57 -21.5 97t-56.5 60.5t-76 20.5q-53 0 -89.5 -25.5t-55 -66t-18.5 -86.5q0 -45 16.5 -86.5t51 -67.5t87.5 -26zM207 457h-16v6l57 106h30v-11z" />
    <glyph glyph-name="Hbar" unicode="&#x126;" horiz-adv-x="579" 
d="M25 434v25h524v-25h-524zM102 0h-27v563h27v-563zM474 563h25v-563h-25v563zM480 281h-384v25h384v-25z" />
    <glyph glyph-name="hbar" unicode="&#x127;" horiz-adv-x="456" 
d="M375 0v202q0 55 -12.5 94.5t-41 60.5t-77.5 21q-52 0 -87 -25.5t-53 -68t-18 -94.5v100q-1 -6 1.5 3.5t12 27.5t27.5 37t46.5 32.5t68.5 13.5q41 0 69 -11t46 -30.5t27.5 -45.5t13 -55t3.5 -60v-202h-26zM60 0v563h26v-563h-26zM222 475h-216v25h216v-25z" />
    <glyph glyph-name="Itilde" unicode="&#x128;" horiz-adv-x="305" 
d="M135 18v527h26v-527h-26zM55 0v24h185v-24h-185zM55 538v25h185v-25h-185zM49 629q-1 17 1 30t8 23t16 15t25 5q21 0 33.5 -8t21 -18.5t18 -18.5t24.5 -8q18 0 21.5 14t3.5 40h25q1 -16 -1 -30t-8 -23.5t-16 -15t-25 -5.5q-20 0 -33 8t-22 18.5t-18.5 18.5t-23.5 8
q-17 0 -21.5 -14t-3.5 -39h-25z" />
    <glyph glyph-name="itilde" unicode="&#x129;" horiz-adv-x="138" 
d="M55 0v404h26v-404h-26zM-31 470q-1 17 1 30t8 23t16 15t25 5q21 0 33.5 -8t21 -18.5t18 -18.5t24.5 -8q18 0 21.5 14t3.5 40h25q1 -16 -1 -30t-8 -23.5t-16 -15t-25 -5.5q-20 0 -33 8t-22 18.5t-18.5 18.5t-23.5 8q-17 0 -21.5 -14t-3.5 -39h-25z" />
    <glyph glyph-name="Imacron" unicode="&#x12a;" horiz-adv-x="305" 
d="M135 18v527h26v-527h-26zM55 0v24h185v-24h-185zM55 538v25h185v-25h-185zM37 626v26h222v-26h-222z" />
    <glyph glyph-name="imacron" unicode="&#x12b;" horiz-adv-x="138" 
d="M55 0v404h26v-404h-26zM-11 467v26h155v-26h-155z" />
    <glyph glyph-name="Iogonek" unicode="&#x12e;" horiz-adv-x="305" 
d="M135 18v527h26v-527h-26zM55 0v24h185v-24h-185zM55 538v25h185v-25h-185zM148 -198q-24 0 -41 10t-26 27t-9 38q0 26 12 47t30 38t36.5 28t30.5 17l12 6v-13l-14.5 -8.5t-34 -25t-34 -39t-14.5 -50.5q0 -22 13.5 -36.5t38.5 -14.5q21 0 31.5 8.5t14.5 17l4 8.5l22 -15
l-7.5 -10.5t-23.5 -21.5t-41 -11z" />
    <glyph glyph-name="iogonek" unicode="&#x12f;" horiz-adv-x="138" 
d="M55 0v404h26v-404h-26zM68 473q-16 0 -22 8.5t-6 19.5t6 19t22 8q17 0 22 -8t5 -19t-5 -19.5t-22 -8.5zM31 -198q-24 0 -41 10t-26 27t-9 38q0 26 12 47t30 38t36.5 28t30.5 17l12 6v-13l-14.5 -8.5t-34 -25t-34 -39t-14.5 -50.5q0 -22 13.5 -36.5t38.5 -14.5
q21 0 31.5 8.5t14.5 17l4 8.5l22 -15l-7.5 -10.5t-23.5 -21.5t-41 -11z" />
    <glyph glyph-name="Idotaccent" unicode="&#x130;" horiz-adv-x="305" 
d="M135 18v527h26v-527h-26zM55 0v24h185v-24h-185zM55 538v25h185v-25h-185zM148 632q-16 0 -22 8.5t-6 19.5t6 19t22 8q17 0 22 -8t5 -19t-5 -19.5t-22 -8.5z" />
    <glyph glyph-name="dotlessi" unicode="&#x131;" horiz-adv-x="138" 
d="M55 0v404h26v-404h-26z" />
    <glyph glyph-name="IJ" unicode="&#x132;" horiz-adv-x="699" 
d="M135 18v527h26v-527h-26zM55 0v24h185v-24h-185zM55 538v25h185v-25h-185zM492 -10q-13 0 -36.5 4.5t-47.5 17.5t-41 40t-17 72h24q0 -23 9.5 -48.5t35.5 -43.5t73 -18q59 0 87.5 30.5t28.5 97.5v403h26v-403q0 -37 -9 -65.5t-27.5 -48t-44.5 -29t-61 -9.5zM501 538v24
h133v-24h-133z" />
    <glyph glyph-name="ij" unicode="&#x133;" horiz-adv-x="316" 
d="M55 0v404h27v-404h-27zM69 473q-16 0 -22 8.5t-6 19.5t6 19t22 8q17 0 22 -8t5 -19t-5 -19.5t-22 -8.5zM213 473q-16 0 -22 8.5t-6 19.5t6 19t22 8q17 0 22 -8t5 -19t-5 -19.5t-22 -8.5zM200 404h27v-509q0 -15 -4 -31t-30 -16h-64v25h71v531z" />
    <glyph glyph-name="uni0136" unicode="&#x136;" horiz-adv-x="527" 
d="M96 199v37l350 327h35v-9zM75 -1v564h28v-564h-28zM460 0l-261 304l19 18l275 -313v-9h-33zM235 -185v30h11q23 0 26.5 14t3.5 29q-16 -4 -25.5 3.5t-9.5 26.5q0 11 5 19.5t21 8.5q17 0 21.5 -9.5t4.5 -29.5q0 -31 -3.5 -51.5t-13 -30.5t-27.5 -10h-14z" />
    <glyph glyph-name="uni0137" unicode="&#x137;" horiz-adv-x="409" 
d="M82 -1h-27v564h27v-564zM197 229l197 -231h-36l-180 213zM75 106v37l276 261h39zM176 -185v30h11q23 0 26.5 14t3.5 29q-16 -4 -25.5 3.5t-9.5 26.5q0 11 5 19.5t21 8.5q17 0 21.5 -9.5t4.5 -29.5q0 -31 -3.5 -51.5t-13 -30.5t-27.5 -10h-14z" />
    <glyph glyph-name="Lacute" unicode="&#x139;" horiz-adv-x="465" 
d="M70 15v548h26v-548h-26zM70 0v24h373v-24h-373zM100 610h-16v6l57 106h30v-11z" />
    <glyph glyph-name="lacute" unicode="&#x13a;" horiz-adv-x="137" 
d="M55 0v563h27v-563h-27zM76 604h-16v6l57 106h30v-11z" />
    <glyph glyph-name="uni013B" unicode="&#x13b;" horiz-adv-x="465" 
d="M70 15v548h26v-548h-26zM70 0v24h373v-24h-373zM204 -185v30h11q23 0 26.5 14t3.5 29q-16 -4 -25.5 3.5t-9.5 26.5q0 11 5 19.5t21 8.5q17 0 21.5 -9.5t4.5 -29.5q0 -31 -3.5 -51.5t-13 -30.5t-27.5 -10h-14z" />
    <glyph glyph-name="uni013C" unicode="&#x13c;" horiz-adv-x="137" 
d="M55 0v563h27v-563h-27zM40 -185v30h11q23 0 26.5 14t3.5 29q-16 -4 -25.5 3.5t-9.5 26.5q0 11 5 19.5t21 8.5q17 0 21.5 -9.5t4.5 -29.5q0 -31 -3.5 -51.5t-13 -30.5t-27.5 -10h-14z" />
    <glyph glyph-name="Lcaron" unicode="&#x13d;" horiz-adv-x="465" 
d="M70 15v548h26v-548h-26zM70 0v24h373v-24h-373zM308 429l37 134h30l-51 -134h-16z" />
    <glyph glyph-name="lcaron" unicode="&#x13e;" horiz-adv-x="191" 
d="M55 0v563h27v-563h-27zM124 441l37 134h30l-51 -134h-16z" />
    <glyph glyph-name="Lslash" unicode="&#x141;" horiz-adv-x="465" 
d="M-6 240v26l252 134v-26zM70 15v548h26v-548h-26zM70 0v24h373v-24h-373z" />
    <glyph glyph-name="lslash" unicode="&#x142;" horiz-adv-x="192" 
d="M-6 240v30l162 134v-30zM55 0v563h27v-563h-27z" />
    <glyph glyph-name="Nacute" unicode="&#x143;" horiz-adv-x="557" 
d="M472 563h25v-563h-47l-368 550h-2v-550h-25v563h45l370 -550h2v550zM286 603h-16v6l57 106h30v-11z" />
    <glyph glyph-name="nacute" unicode="&#x144;" horiz-adv-x="426" 
d="M40 0v404h21l5 -114h2q3 8 11.5 26.5t26 38.5t46 34.5t70.5 14.5q41 0 69 -11t46 -30.5t27.5 -45.5t13 -55t3.5 -60v-202h-26v202q0 55 -12.5 94.5t-41 60.5t-77.5 21q-52 0 -87 -25.5t-53 -68t-18 -94.5v-190h-26zM220 444h-16v6l57 106h30v-11z" />
    <glyph glyph-name="uni0145" unicode="&#x145;" horiz-adv-x="557" 
d="M472 563h25v-563h-47l-368 550h-2v-550h-25v563h45l370 -550h2v550zM250 -185v30h11q23 0 26.5 14t3.5 29q-16 -4 -25.5 3.5t-9.5 26.5q0 11 5 19.5t21 8.5q17 0 21.5 -9.5t4.5 -29.5q0 -31 -3.5 -51.5t-13 -30.5t-27.5 -10h-14z" />
    <glyph glyph-name="uni0146" unicode="&#x146;" horiz-adv-x="426" 
d="M40 0v404h21l5 -114h2q3 8 11.5 26.5t26 38.5t46 34.5t70.5 14.5q41 0 69 -11t46 -30.5t27.5 -45.5t13 -55t3.5 -60v-202h-26v202q0 55 -12.5 94.5t-41 60.5t-77.5 21q-52 0 -87 -25.5t-53 -68t-18 -94.5v-190h-26zM184 -185v30h11q23 0 26.5 14t3.5 29q-16 -4 -25.5 3.5
t-9.5 26.5q0 11 5 19.5t21 8.5q17 0 21.5 -9.5t4.5 -29.5q0 -31 -3.5 -51.5t-13 -30.5t-27.5 -10h-14z" />
    <glyph glyph-name="Ncaron" unicode="&#x147;" horiz-adv-x="557" 
d="M472 563h25v-563h-47l-368 550h-2v-550h-25v563h45l370 -550h2v550zM271 603l-100 106v6h31l75 -90h2l76 90h31v-6l-101 -106h-14z" />
    <glyph glyph-name="ncaron" unicode="&#x148;" horiz-adv-x="426" 
d="M40 0v404h21l5 -114h2q3 8 11.5 26.5t26 38.5t46 34.5t70.5 14.5q41 0 69 -11t46 -30.5t27.5 -45.5t13 -55t3.5 -60v-202h-26v202q0 55 -12.5 94.5t-41 60.5t-77.5 21q-52 0 -87 -25.5t-53 -68t-18 -94.5v-190h-26zM205 444l-100 106v6h31l75 -90h2l76 90h31v-6
l-101 -106h-14z" />
    <glyph glyph-name="Eng" unicode="&#x14a;" horiz-adv-x="600" 
d="M404 -199q-14 0 -26 2.5t-22 8t-19 13.5l19 19q8 -9 20 -15t28 -6q35 0 52 20t16 64v126h25v-121q1 -33 -8.5 -58t-30 -39t-54.5 -14zM472 563h25v-563h-47l-368 550h-2v-550h-25v563h45l370 -550h2v550z" />
    <glyph glyph-name="eng" unicode="&#x14b;" horiz-adv-x="457" 
d="M287 -199q-14 0 -26.5 2.5t-22 8t-18.5 13.5l19 19q8 -9 20 -15t28 -6q35 0 52 20t16 64v126h26v-121q1 -33 -8.5 -58t-30 -39t-55.5 -14zM40 0v404h21l5 -114h2q3 8 11.5 26.5t26 38.5t46 34.5t70.5 14.5q41 0 69 -11t46 -30.5t27.5 -45.5t13 -55t3.5 -60v-202h-26v202
q0 55 -12.5 94.5t-41 60.5t-77.5 21q-52 0 -87 -25.5t-53 -68t-18 -94.5v-190h-26z" />
    <glyph glyph-name="Omacron" unicode="&#x14c;" horiz-adv-x="597" 
d="M291 -14q-130 0 -198 79.5t-68 214.5q0 89 29.5 154.5t88.5 102t148 36.5q131 0 198.5 -79.5t67.5 -213.5q0 -87 -30 -153.5t-89 -103.5t-147 -37zM291 11q80 0 133 33t80 93.5t27 142.5t-26 142t-79.5 93t-134.5 33q-118 0 -179 -70t-61 -198q0 -81 26 -141.5t79.5 -94
t134.5 -33.5zM188 626v26h222v-26h-222z" />
    <glyph glyph-name="omacron" unicode="&#x14d;" horiz-adv-x="442" 
d="M214 -10q-61 0 -102 26.5t-61.5 73t-20.5 106.5q0 61 20.5 108t61.5 73.5t102 26.5q89 0 136 -57t47 -151q0 -58 -19.5 -105t-60 -74t-103.5 -27zM214 16q60 0 93.5 27t47.5 68.5t14 84.5q0 44 -14 86t-47.5 69t-93.5 27q-59 0 -93.5 -27t-48.5 -69t-14 -86
q0 -43 14 -84.5t48.5 -68.5t93.5 -27zM110 467v26h222v-26h-222z" />
    <glyph glyph-name="Ohungarumlaut" unicode="&#x150;" horiz-adv-x="597" 
d="M291 -14q-130 0 -198 79.5t-68 214.5q0 89 29.5 154.5t88.5 102t148 36.5q131 0 198.5 -79.5t67.5 -213.5q0 -87 -30 -153.5t-89 -103.5t-147 -37zM291 11q80 0 133 33t80 93.5t27 142.5t-26 142t-79.5 93t-134.5 33q-118 0 -179 -70t-61 -198q0 -81 26 -141.5t79.5 -94
t134.5 -33.5zM222 620l82 127l30 -13l-96 -121zM332 620l82 127l30 -13l-96 -121z" />
    <glyph glyph-name="ohungarumlaut" unicode="&#x151;" horiz-adv-x="442" 
d="M214 -10q-61 0 -102 26.5t-61.5 73t-20.5 106.5q0 61 20.5 108t61.5 73.5t102 26.5q89 0 136 -57t47 -151q0 -58 -19.5 -105t-60 -74t-103.5 -27zM214 16q60 0 93.5 27t47.5 68.5t14 84.5q0 44 -14 86t-47.5 69t-93.5 27q-59 0 -93.5 -27t-48.5 -69t-14 -86
q0 -43 14 -84.5t48.5 -68.5t93.5 -27zM144 461l82 127l30 -13l-96 -121zM254 461l82 127l30 -13l-96 -121z" />
    <glyph glyph-name="OE" unicode="&#x152;" horiz-adv-x="825" 
d="M356 0q-97 0 -170.5 24t-114.5 85.5t-41 172.5q0 94 41 156t114.5 93.5t170.5 31.5h15h23.5h60.5v-563h-58h-24h-17zM356 25h12.5h15h44.5v513h-72q-89 0 -156.5 -27.5t-104.5 -84t-37 -144.5q0 -79 21 -129.5t60.5 -78.5t94.5 -38.5t122 -10.5zM428 0v563h353v-26h-326
v-239h265v-26h-265v-247h335v-25h-362z" />
    <glyph glyph-name="oe" unicode="&#x153;" horiz-adv-x="774" 
d="M214 -10q-61 0 -102 26.5t-61.5 73t-20.5 106.5q0 61 20.5 108t61.5 73.5t102 26.5q89 0 135.5 -57t46.5 -151q0 -58 -19.5 -105t-59.5 -74t-103 -27zM214 16q60 0 94 27t48 68.5t14 84.5q0 44 -14 86t-48 69t-94 27q-59 0 -93.5 -27t-48.5 -69t-14 -86q0 -43 14 -84.5
t48.5 -68.5t93.5 -27zM557 -10q-63 0 -104.5 31t-62 80t-20.5 101q0 38 12 74t35.5 65t58.5 46t81 17q49 0 86 -22t60.5 -62t29.5 -94q1 -6 1 -12.5v-12.5h-338q0 -84 42 -135t119 -51q56 0 97.5 29.5t51.5 80.5h27q-8 -40 -33 -70.5t-62 -47.5t-81 -17zM399 226h307
q-1 23 -10 49.5t-27 50t-46 38.5t-66 15q-34 0 -61 -11.5t-47.5 -32t-33 -48.5t-16.5 -61z" />
    <glyph glyph-name="Racute" unicode="&#x154;" horiz-adv-x="508" 
d="M68 0v563h164q71 0 119 -13.5t73 -47t25 -95.5q0 -35 -14 -67.5t-44 -53t-78 -20.5q42 0 65.5 -15.5t33.5 -40.5t12 -54t1.5 -57t1.5 -49.5t12 -31t34 -1.5v-25l-10.5 -1.5t-25 2t-25 18.5t-10.5 48q0 66 -5 105t-21 58t-49.5 25.5t-89.5 6t-142 -0.5v-253h-27zM95 278
h162q57 0 94 12.5t55 40.5t18 76q0 57 -22.5 84.5t-65 36.5t-104.5 9h-137v-259zM250 603h-16v6l57 106h30v-11z" />
    <glyph glyph-name="racute" unicode="&#x155;" horiz-adv-x="266" 
d="M55 0v404h21l6 -116l-1 -86v-202h-26zM81 202l-3 87q3 26 14.5 47t31 36t46.5 23.5t61 8.5h25v-30h-25q-54 0 -84.5 -14t-44.5 -38.5t-17.5 -55.5t-3.5 -64zM140 444h-16v6l57 106h30v-11z" />
    <glyph glyph-name="uni0156" unicode="&#x156;" horiz-adv-x="508" 
d="M68 0v563h164q71 0 119 -13.5t73 -47t25 -95.5q0 -35 -14 -67.5t-44 -53t-78 -20.5q42 0 65.5 -15.5t33.5 -40.5t12 -54t1.5 -57t1.5 -49.5t12 -31t34 -1.5v-25l-10.5 -1.5t-25 2t-25 18.5t-10.5 48q0 66 -5 105t-21 58t-49.5 25.5t-89.5 6t-142 -0.5v-253h-27zM95 278
h162q57 0 94 12.5t55 40.5t18 76q0 57 -22.5 84.5t-65 36.5t-104.5 9h-137v-259zM225 -185v30h11q23 0 26.5 14t3.5 29q-16 -4 -25.5 3.5t-9.5 26.5q0 11 5 19.5t21 8.5q17 0 21.5 -9.5t4.5 -29.5q0 -31 -3.5 -51.5t-13 -30.5t-27.5 -10h-14z" />
    <glyph glyph-name="uni0157" unicode="&#x157;" horiz-adv-x="266" 
d="M55 0v404h21l6 -116l-1 -86v-202h-26zM81 202l-3 87q3 26 14.5 47t31 36t46.5 23.5t61 8.5h25v-30h-25q-54 0 -84.5 -14t-44.5 -38.5t-17.5 -55.5t-3.5 -64zM39 -185v30h11q23 0 26.5 14t3.5 29q-16 -4 -25.5 3.5t-9.5 26.5q0 11 5 19.5t21 8.5q17 0 21.5 -9.5t4.5 -29.5
q0 -31 -3.5 -51.5t-13 -30.5t-27.5 -10h-14z" />
    <glyph glyph-name="Rcaron" unicode="&#x158;" horiz-adv-x="508" 
d="M68 0v563h164q71 0 119 -13.5t73 -47t25 -95.5q0 -35 -14 -67.5t-44 -53t-78 -20.5q42 0 65.5 -15.5t33.5 -40.5t12 -54t1.5 -57t1.5 -49.5t12 -31t34 -1.5v-25l-10.5 -1.5t-25 2t-25 18.5t-10.5 48q0 66 -5 105t-21 58t-49.5 25.5t-89.5 6t-142 -0.5v-253h-27zM95 278
h162q57 0 94 12.5t55 40.5t18 76q0 57 -22.5 84.5t-65 36.5t-104.5 9h-137v-259zM235 603l-100 106v6h31l75 -90h2l76 90h31v-6l-101 -106h-14z" />
    <glyph glyph-name="rcaron" unicode="&#x159;" horiz-adv-x="266" 
d="M55 0v404h21l6 -116l-1 -86v-202h-26zM81 202l-3 87q3 26 14.5 47t31 36t46.5 23.5t61 8.5h25v-30h-25q-54 0 -84.5 -14t-44.5 -38.5t-17.5 -55.5t-3.5 -64zM125 444l-100 106v6h31l75 -90h2l76 90h31v-6l-101 -106h-14z" />
    <glyph glyph-name="Sacute" unicode="&#x15a;" horiz-adv-x="496" 
d="M263 -14q-43 0 -83.5 10.5t-73.5 32.5t-52.5 56t-20.5 81h27q0 -2 1.5 -18.5t10.5 -39.5t30.5 -45t60.5 -37t101 -15q60 0 94.5 15t51.5 36t22 40t5 26q1 42 -19 68t-54.5 41.5t-75.5 26t-82 22t-75.5 28.5t-54.5 46t-19 75q2 43 30 74t74 47.5t99 16.5q56 0 101 -20
t71 -58.5t24 -96.5h-27q2 46 -16 75t-45.5 45.5t-57 23t-51.5 6.5q-76 0 -124.5 -32.5t-50.5 -80.5q-1 -41 19 -66t54 -40t75 -25t81.5 -21.5t74.5 -29t54 -47.5t19 -78q-1 -45 -28.5 -76.5t-71.5 -48.5t-98 -17zM255 603h-16v6l57 106h30v-11z" />
    <glyph glyph-name="sacute" unicode="&#x15b;" horiz-adv-x="390" 
d="M196 -10q-48 0 -78.5 13.5t-47.5 33.5t-25 39.5t-9.5 33l-1.5 13.5h28q0 -1 3 -18t15.5 -38.5t40 -37.5t76.5 -16q34 0 64.5 8t49.5 26.5t18 49.5q0 36 -21 55t-54 28t-69 16t-68.5 18t-52.5 33.5t-19 63.5q1 44 44 73.5t112 29.5q22 0 49 -5t51.5 -18.5t39.5 -39
t12 -67.5h-28q2 34 -11 54.5t-34 31.5t-44 14.5t-41 3.5q-50 0 -87 -19t-37 -58q0 -32 20.5 -49t53 -25.5t68.5 -15.5t68.5 -19.5t53 -36.5t20.5 -68q0 -39 -21.5 -62.5t-57.5 -34t-80 -10.5zM202 444h-16v6l57 106h30v-11z" />
    <glyph glyph-name="Scedilla" unicode="&#x15e;" horiz-adv-x="496" 
d="M263 -14q-43 0 -83.5 10.5t-73.5 32.5t-52.5 56t-20.5 81h27q0 -2 1.5 -18.5t10.5 -39.5t30.5 -45t60.5 -37t101 -15q60 0 94.5 15t51.5 36t22 40t5 26q1 42 -19 68t-54.5 41.5t-75.5 26t-82 22t-75.5 28.5t-54.5 46t-19 75q2 43 30 74t74 47.5t99 16.5q56 0 101 -20
t71 -58.5t24 -96.5h-27q2 46 -16 75t-45.5 45.5t-57 23t-51.5 6.5q-76 0 -124.5 -32.5t-50.5 -80.5q-1 -41 19 -66t54 -40t75 -25t81.5 -21.5t74.5 -29t54 -47.5t19 -78q-1 -45 -28.5 -76.5t-71.5 -48.5t-98 -17zM172 -116l15 18q14 -16 35 -25t42 -9q25 0 41.5 11t16.5 33
q0 17 -12 24t-28 7q-15 0 -32.5 -6t-31.5 -17l-15 16l37 73l21 -9l-41 -62q11 12 29 19.5t37 7.5q23 0 41.5 -12t18.5 -40q0 -33 -26.5 -50.5t-61.5 -17.5q-22 0 -45.5 10t-40.5 29z" />
    <glyph glyph-name="scedilla" unicode="&#x15f;" horiz-adv-x="390" 
d="M196 -10q-48 0 -78.5 13.5t-47.5 33.5t-25 39.5t-9.5 33l-1.5 13.5h28q0 -1 3 -18t15.5 -38.5t40 -37.5t76.5 -16q34 0 64.5 8t49.5 26.5t18 49.5q0 36 -21 55t-54 28t-69 16t-68.5 18t-52.5 33.5t-19 63.5q1 44 44 73.5t112 29.5q22 0 49 -5t51.5 -18.5t39.5 -39
t12 -67.5h-28q2 34 -11 54.5t-34 31.5t-44 14.5t-41 3.5q-50 0 -87 -19t-37 -58q0 -32 20.5 -49t53 -25.5t68.5 -15.5t68.5 -19.5t53 -36.5t20.5 -68q0 -39 -21.5 -62.5t-57.5 -34t-80 -10.5zM119 -116l15 18q14 -16 35 -25t42 -9q25 0 41.5 11t16.5 33q0 17 -12 24t-28 7
q-15 0 -32.5 -6t-31.5 -17l-15 16l37 73l21 -9l-41 -62q11 12 29 19.5t37 7.5q23 0 41.5 -12t18.5 -40q0 -33 -26.5 -50.5t-61.5 -17.5q-22 0 -45.5 10t-40.5 29z" />
    <glyph glyph-name="Scaron" unicode="&#x160;" horiz-adv-x="496" 
d="M263 -14q-43 0 -83.5 10.5t-73.5 32.5t-52.5 56t-20.5 81h27q0 -2 1.5 -18.5t10.5 -39.5t30.5 -45t60.5 -37t101 -15q60 0 94.5 15t51.5 36t22 40t5 26q1 42 -19 68t-54.5 41.5t-75.5 26t-82 22t-75.5 28.5t-54.5 46t-19 75q2 43 30 74t74 47.5t99 16.5q56 0 101 -20
t71 -58.5t24 -96.5h-27q2 46 -16 75t-45.5 45.5t-57 23t-51.5 6.5q-76 0 -124.5 -32.5t-50.5 -80.5q-1 -41 19 -66t54 -40t75 -25t81.5 -21.5t74.5 -29t54 -47.5t19 -78q-1 -45 -28.5 -76.5t-71.5 -48.5t-98 -17zM240 603l-100 106v6h31l75 -90h2l76 90h31v-6l-101 -106h-14
z" />
    <glyph glyph-name="scaron" unicode="&#x161;" horiz-adv-x="390" 
d="M196 -10q-48 0 -78.5 13.5t-47.5 33.5t-25 39.5t-9.5 33l-1.5 13.5h28q0 -1 3 -18t15.5 -38.5t40 -37.5t76.5 -16q34 0 64.5 8t49.5 26.5t18 49.5q0 36 -21 55t-54 28t-69 16t-68.5 18t-52.5 33.5t-19 63.5q1 44 44 73.5t112 29.5q22 0 49 -5t51.5 -18.5t39.5 -39
t12 -67.5h-28q2 34 -11 54.5t-34 31.5t-44 14.5t-41 3.5q-50 0 -87 -19t-37 -58q0 -32 20.5 -49t53 -25.5t68.5 -15.5t68.5 -19.5t53 -36.5t20.5 -68q0 -39 -21.5 -62.5t-57.5 -34t-80 -10.5zM187 444l-100 106v6h31l75 -90h2l76 90h31v-6l-101 -106h-14z" />
    <glyph glyph-name="uni0162" unicode="&#x162;" horiz-adv-x="434" 
d="M231 545v-545h-26v545h26zM10 538v25h415v-25h-415zM141 -116l15 18q14 -16 35 -25t42 -9q25 0 41.5 11t16.5 33q0 17 -12 24t-28 7q-15 0 -32.5 -6t-31.5 -17l-15 16l37 73l21 -9l-41 -62q11 12 29 19.5t37 7.5q23 0 41.5 -12t18.5 -40q0 -33 -26.5 -50.5t-61.5 -17.5
q-22 0 -45.5 10t-40.5 29z" />
    <glyph glyph-name="uni0163" unicode="&#x163;" horiz-adv-x="247" 
d="M109 0q-25 0 -29.5 16t-4.5 31v339h27v-361h95v-25h-88zM7 379v25q28 0 42.5 2t19.5 11t5.5 31t0.5 61h27v-105h95v-25h-190zM48 -116l15 18q14 -16 35 -25t42 -9q25 0 41.5 11t16.5 33q0 17 -12 24t-28 7q-15 0 -32.5 -6t-31.5 -17l-15 16l37 73l21 -9l-41 -62
q11 12 29 19.5t37 7.5q23 0 41.5 -12t18.5 -40q0 -33 -26.5 -50.5t-61.5 -17.5q-22 0 -45.5 10t-40.5 29z" />
    <glyph glyph-name="Tcaron" unicode="&#x164;" horiz-adv-x="434" 
d="M231 545v-545h-26v545h26zM10 538v25h415v-25h-415zM209 603l-100 106v6h31l75 -90h2l76 90h31v-6l-101 -106h-14z" />
    <glyph glyph-name="tcaron" unicode="&#x165;" horiz-adv-x="247" 
d="M109 0q-25 0 -29.5 16t-4.5 31v339h27v-361h95v-25h-88zM7 379v25q28 0 42.5 2t19.5 11t5.5 31t0.5 61h27v-105h95v-25h-190zM143 441l37 134h30l-51 -134h-16z" />
    <glyph glyph-name="Tbar" unicode="&#x166;" horiz-adv-x="434" 
d="M10 538v25h415v-25h-415zM55 302v25h325v-25h-325zM231 545v-545h-26v545h26z" />
    <glyph glyph-name="tbar" unicode="&#x167;" horiz-adv-x="247" 
d="M197 16q-21 -19 -42.5 -24.5t-39.5 2t-29 26t-11 47.5v319h27v-319q0 -21 8 -34t20.5 -17t27 0.5t28.5 18.5zM18 210v25h160v-25h-160zM7 379v25q28 0 42.5 2t19.5 11t5.5 31t0.5 61h27v-105h95v-25h-190z" />
    <glyph glyph-name="Utilde" unicode="&#x168;" horiz-adv-x="558" 
d="M274 -14q-106 0 -165 66.5t-59 187.5v323h25v-323q0 -55 13.5 -97.5t39 -72t62.5 -44.5t84 -15q67 0 111 26t66.5 77.5t22.5 125.5v323h24v-323q0 -123 -57.5 -188.5t-166.5 -65.5zM180 629q-1 17 1 30t8 23t16 15t25 5q21 0 33.5 -8t21 -18.5t18 -18.5t24.5 -8
q18 0 21.5 14t3.5 40h25q1 -16 -1 -30t-8 -23.5t-16 -15t-25 -5.5q-20 0 -33 8t-22 18.5t-18.5 18.5t-23.5 8q-17 0 -21.5 -14t-3.5 -39h-25z" />
    <glyph glyph-name="utilde" unicode="&#x169;" horiz-adv-x="430" 
d="M199 -10q-37 0 -64.5 10t-46 28t-29.5 43t-16 55.5t-5 65.5v212h27v-212q0 -50 11 -90t40 -63t83 -23q51 0 82.5 24t47.5 62.5t19 81.5v220h27v-404h-21l-5 103h-2q-6 -19 -18 -38.5t-30.5 -36.5t-43.5 -27.5t-56 -10.5zM116 470q-1 17 1 30t8 23t16 15t25 5
q21 0 33.5 -8t21 -18.5t18 -18.5t24.5 -8q18 0 21.5 14t3.5 40h25q1 -16 -1 -30t-8 -23.5t-16 -15t-25 -5.5q-20 0 -33 8t-22 18.5t-18.5 18.5t-23.5 8q-17 0 -21.5 -14t-3.5 -39h-25z" />
    <glyph glyph-name="Umacron" unicode="&#x16a;" horiz-adv-x="558" 
d="M274 -14q-106 0 -165 66.5t-59 187.5v323h25v-323q0 -55 13.5 -97.5t39 -72t62.5 -44.5t84 -15q67 0 111 26t66.5 77.5t22.5 125.5v323h24v-323q0 -123 -57.5 -188.5t-166.5 -65.5zM168 626v26h222v-26h-222z" />
    <glyph glyph-name="umacron" unicode="&#x16b;" horiz-adv-x="430" 
d="M199 -10q-37 0 -64.5 10t-46 28t-29.5 43t-16 55.5t-5 65.5v212h27v-212q0 -50 11 -90t40 -63t83 -23q51 0 82.5 24t47.5 62.5t19 81.5v220h27v-404h-21l-5 103h-2q-6 -19 -18 -38.5t-30.5 -36.5t-43.5 -27.5t-56 -10.5zM104 467v26h222v-26h-222z" />
    <glyph glyph-name="Ubreve" unicode="&#x16c;" horiz-adv-x="558" 
d="M274 -14q-106 0 -165 66.5t-59 187.5v323h25v-323q0 -55 13.5 -97.5t39 -72t62.5 -44.5t84 -15q67 0 111 26t66.5 77.5t22.5 125.5v323h24v-323q0 -123 -57.5 -188.5t-166.5 -65.5zM280 618q-47 0 -75 21t-28 55h22q0 -34 24 -42.5t56 -8.5t55.5 8.5t23.5 42.5h23
q0 -34 -27 -55t-74 -21z" />
    <glyph glyph-name="ubreve" unicode="&#x16d;" horiz-adv-x="430" 
d="M199 -10q-37 0 -64.5 10t-46 28t-29.5 43t-16 55.5t-5 65.5v212h27v-212q0 -50 11 -90t40 -63t83 -23q51 0 82.5 24t47.5 62.5t19 81.5v220h27v-404h-21l-5 103h-2q-6 -19 -18 -38.5t-30.5 -36.5t-43.5 -27.5t-56 -10.5zM216 459q-47 0 -75 21t-28 55h22q0 -34 24 -42.5
t56 -8.5t55.5 8.5t23.5 42.5h23q0 -34 -27 -55t-74 -21z" />
    <glyph glyph-name="Uring" unicode="&#x16e;" horiz-adv-x="558" 
d="M274 -14q-106 0 -165 66.5t-59 187.5v323h25v-323q0 -55 13.5 -97.5t39 -72t62.5 -44.5t84 -15q67 0 111 26t66.5 77.5t22.5 125.5v323h24v-323q0 -123 -57.5 -188.5t-166.5 -65.5zM278 624q-37 0 -60 22t-23 59q0 38 22.5 60.5t60.5 22.5t61 -22.5t23 -60.5
q0 -35 -23 -58t-61 -23zM278 643q29 0 45.5 18.5t16.5 44.5t-16.5 44.5t-45.5 18.5t-46 -18.5t-17 -44.5q0 -27 18.5 -45t44.5 -18z" />
    <glyph glyph-name="uring" unicode="&#x16f;" horiz-adv-x="430" 
d="M199 -10q-37 0 -64.5 10t-46 28t-29.5 43t-16 55.5t-5 65.5v212h27v-212q0 -50 11 -90t40 -63t83 -23q51 0 82.5 24t47.5 62.5t19 81.5v220h27v-404h-21l-5 103h-2q-6 -19 -18 -38.5t-30.5 -36.5t-43.5 -27.5t-56 -10.5zM214 465q-37 0 -60 22t-23 59q0 38 22.5 60.5
t60.5 22.5t61 -22.5t23 -60.5q0 -35 -23 -58t-61 -23zM214 484q29 0 45.5 18.5t16.5 44.5t-16.5 44.5t-45.5 18.5t-46 -18.5t-17 -44.5q0 -27 18.5 -45t44.5 -18z" />
    <glyph glyph-name="Uhungarumlaut" unicode="&#x170;" horiz-adv-x="558" 
d="M274 -14q-106 0 -165 66.5t-59 187.5v323h25v-323q0 -55 13.5 -97.5t39 -72t62.5 -44.5t84 -15q67 0 111 26t66.5 77.5t22.5 125.5v323h24v-323q0 -123 -57.5 -188.5t-166.5 -65.5zM202 620l82 127l30 -13l-96 -121zM312 620l82 127l30 -13l-96 -121z" />
    <glyph glyph-name="uhungarumlaut" unicode="&#x171;" horiz-adv-x="430" 
d="M199 -10q-37 0 -64.5 10t-46 28t-29.5 43t-16 55.5t-5 65.5v212h27v-212q0 -50 11 -90t40 -63t83 -23q51 0 82.5 24t47.5 62.5t19 81.5v220h27v-404h-21l-5 103h-2q-6 -19 -18 -38.5t-30.5 -36.5t-43.5 -27.5t-56 -10.5zM138 461l82 127l30 -13l-96 -121zM248 461l82 127
l30 -13l-96 -121z" />
    <glyph glyph-name="Uogonek" unicode="&#x172;" horiz-adv-x="558" 
d="M284 -198q-24 0 -41 10t-26 27t-9 38q0 26 12 46.5t30.5 36.5t36.5 26t30 15.5l12 5.5l5 -13l-15.5 -8t-35.5 -23t-35.5 -36.5t-15.5 -49.5q0 -22 13.5 -36.5t38.5 -14.5q21 0 31.5 8.5t14.5 17l4 8.5l22 -15l-7.5 -10.5t-23.5 -21.5t-41 -11zM274 -14q-106 0 -165 66.5
t-59 187.5v323h25v-323q0 -55 13.5 -97.5t39 -72t62.5 -44.5t84 -15q67 0 111 26t66.5 77.5t22.5 125.5v323h24v-323q0 -123 -57.5 -188.5t-166.5 -65.5z" />
    <glyph glyph-name="uogonek" unicode="&#x173;" horiz-adv-x="430" 
d="M199 -10q-37 0 -64.5 10t-46 28t-29.5 43t-16 55.5t-5 65.5v212h27v-212q0 -50 11 -90t40 -63t83 -23q51 0 82.5 24t47.5 62.5t19 81.5v220h27v-404h-21l-5 103h-2q-6 -19 -18 -38.5t-30.5 -36.5t-43.5 -27.5t-56 -10.5zM325 -198q-24 0 -41 10t-26 27t-9 38q0 26 12 47
t30 38t36.5 28t30.5 17l12 6v-13l-14.5 -8.5t-34 -25t-34 -39t-14.5 -50.5q0 -22 13.5 -36.5t38.5 -14.5q21 0 31.5 8.5t14.5 17l4 8.5l22 -15l-7.5 -10.5t-23.5 -21.5t-41 -11z" />
    <glyph glyph-name="Wcircumflex" unicode="&#x174;" horiz-adv-x="857" 
d="M403 563h29l-15 -40l-186 -523h-46l-185 563h29l180 -547zM807 563h30l-197 -563h-46l-177 523l-13 40h28l184 -547zM321 620v6l100 98h14l101 -98v-6h-31l-76 82h-2l-75 -82h-31z" />
    <glyph glyph-name="wcircumflex" unicode="&#x175;" horiz-adv-x="571" 
d="M123 0l-123 392v12h24l116 -380h2l122 380h26l124 -380h2l113 380h24v-12l-119 -392h-41l-115 356h-2l-114 -356h-39zM178 461v6l100 98h14l101 -98v-6h-31l-76 82h-2l-75 -82h-31z" />
    <glyph glyph-name="Ycircumflex" unicode="&#x176;" horiz-adv-x="413" 
d="M189 207l-194 356h29l177 -322l175 322h28l-194 -356h-21zM186 0v220h27v-220h-27zM99 620v6l100 98h14l101 -98v-6h-31l-76 82h-2l-75 -82h-31z" />
    <glyph glyph-name="ycircumflex" unicode="&#x177;" horiz-adv-x="374" 
d="M-5 -174v25h49q13 0 21.5 5.5t17 19.5t20.5 39l58 125l-159 364h29l145 -332l153 332h30l-233 -497q-12 -25 -21.5 -41t-18.5 -25t-20 -12t-25 -3h-46zM79 461v6l100 98h14l101 -98v-6h-31l-76 82h-2l-75 -82h-31z" />
    <glyph glyph-name="Ydieresis" unicode="&#x178;" horiz-adv-x="413" 
d="M189 207l-194 356h29l177 -322l175 322h28l-194 -356h-21zM186 0v220h27v-220h-27zM141 624q-20 0 -27 10.5t-7 23.5t7 23t27 10t26.5 -10t6.5 -23t-6.5 -23.5t-26.5 -10.5zM273 624q-20 0 -27 10.5t-7 23.5t7 23t27 10t26.5 -10t6.5 -23t-6.5 -23.5t-26.5 -10.5z" />
    <glyph glyph-name="Zacute" unicode="&#x179;" horiz-adv-x="525" 
d="M30 0v23l417 514h-379v26h413v-23l-417 -514h414v-26h-448zM270 603h-16v6l57 106h30v-11z" />
    <glyph glyph-name="zacute" unicode="&#x17a;" horiz-adv-x="416" 
d="M35 0v21l306 359h-293v24h333v-24l-308 -356h308v-24h-346zM215 444h-16v6l57 106h30v-11z" />
    <glyph glyph-name="Zdotaccent" unicode="&#x17b;" horiz-adv-x="525" 
d="M30 0v23l417 514h-379v26h413v-23l-417 -514h414v-26h-448zM263 632q-16 0 -22 8.5t-6 19.5t6 19t22 8q17 0 22 -8t5 -19t-5 -19.5t-22 -8.5z" />
    <glyph glyph-name="zdotaccent" unicode="&#x17c;" horiz-adv-x="416" 
d="M35 0v21l306 359h-293v24h333v-24l-308 -356h308v-24h-346zM208 473q-16 0 -22 8.5t-6 19.5t6 19t22 8q17 0 22 -8t5 -19t-5 -19.5t-22 -8.5z" />
    <glyph glyph-name="Zcaron" unicode="&#x17d;" horiz-adv-x="525" 
d="M30 0v23l417 514h-379v26h413v-23l-417 -514h414v-26h-448zM255 603l-100 106v6h31l75 -90h2l76 90h31v-6l-101 -106h-14z" />
    <glyph glyph-name="zcaron" unicode="&#x17e;" horiz-adv-x="416" 
d="M35 0v21l306 359h-293v24h333v-24l-308 -356h308v-24h-346zM200 444l-100 106v6h31l75 -90h2l76 90h31v-6l-101 -106h-14z" />
    <glyph glyph-name="Ohorn" unicode="&#x1a0;" horiz-adv-x="597" 
d="M291 -14q-130 0 -198 79.5t-68 214.5q0 89 29.5 154.5t88.5 102t148 36.5q131 0 198.5 -79.5t67.5 -213.5q0 -87 -30 -153.5t-89 -103.5t-147 -37zM291 11q80 0 133 33t80 93.5t27 142.5t-26 142t-79.5 93t-134.5 33q-118 0 -179 -70t-61 -198q0 -81 26 -141.5t79.5 -94
t134.5 -33.5zM369 540l3 23h15q11 0 17 2.5t8 9t2 18.5h41q0 -19 -8.5 -30.5t-23 -17t-33.5 -5.5h-21z" />
    <glyph glyph-name="ohorn" unicode="&#x1a1;" horiz-adv-x="442" 
d="M214 -10q-61 0 -102 26.5t-61.5 73t-20.5 106.5q0 61 20.5 108t61.5 73.5t102 26.5q89 0 136 -57t47 -151q0 -58 -19.5 -105t-60 -74t-103.5 -27zM214 16q60 0 93.5 27t47.5 68.5t14 84.5q0 44 -14 86t-47.5 69t-93.5 27q-59 0 -93.5 -27t-48.5 -69t-14 -86
q0 -43 14 -84.5t48.5 -68.5t93.5 -27zM291 363l3 23h15q11 0 17 2.5t8 9t2 18.5h41q0 -19 -8.5 -30.5t-23 -17t-33.5 -5.5h-21z" />
    <glyph glyph-name="Uhorn" unicode="&#x1af;" horiz-adv-x="558" 
d="M274 -14q-106 0 -165 66.5t-59 187.5v323h25v-323q0 -55 13.5 -97.5t39 -72t62.5 -44.5t84 -15q67 0 111 26t66.5 77.5t22.5 125.5v323h24v-323q0 -123 -57.5 -188.5t-166.5 -65.5zM484 540l3 23h15q11 0 17 2.5t8 9t2 18.5h41q0 -19 -8.5 -30.5t-23 -17t-33.5 -5.5h-21z
" />
    <glyph glyph-name="uhorn" unicode="&#x1b0;" horiz-adv-x="430" 
d="M199 -10q-37 0 -64.5 10t-46 28t-29.5 43t-16 55.5t-5 65.5v212h27v-212q0 -50 11 -90t40 -63t83 -23q51 0 82.5 24t47.5 62.5t19 81.5v220h27v-404h-21l-5 103h-2q-6 -19 -18 -38.5t-30.5 -36.5t-43.5 -27.5t-56 -10.5zM361 381l3 23h15q11 0 17 2.5t8 9t2 18.5h41
q0 -19 -8.5 -30.5t-23 -17t-33.5 -5.5h-21z" />
    <glyph glyph-name="uni0218" unicode="&#x218;" horiz-adv-x="496" 
d="M263 -14q-43 0 -83.5 10.5t-73.5 32.5t-52.5 56t-20.5 81h27q0 -2 1.5 -18.5t10.5 -39.5t30.5 -45t60.5 -37t101 -15q60 0 94.5 15t51.5 36t22 40t5 26q1 42 -19 68t-54.5 41.5t-75.5 26t-82 22t-75.5 28.5t-54.5 46t-19 75q2 43 30 74t74 47.5t99 16.5q56 0 101 -20
t71 -58.5t24 -96.5h-27q2 46 -16 75t-45.5 45.5t-57 23t-51.5 6.5q-76 0 -124.5 -32.5t-50.5 -80.5q-1 -41 19 -66t54 -40t75 -25t81.5 -21.5t74.5 -29t54 -47.5t19 -78q-1 -45 -28.5 -76.5t-71.5 -48.5t-98 -17zM219 -185v30h11q23 0 26.5 14t3.5 29q-16 -4 -25.5 3.5
t-9.5 26.5q0 11 5 19.5t21 8.5q17 0 21.5 -9.5t4.5 -29.5q0 -31 -3.5 -51.5t-13 -30.5t-27.5 -10h-14z" />
    <glyph glyph-name="uni0219" unicode="&#x219;" horiz-adv-x="390" 
d="M196 -10q-48 0 -78.5 13.5t-47.5 33.5t-25 39.5t-9.5 33l-1.5 13.5h28q0 -1 3 -18t15.5 -38.5t40 -37.5t76.5 -16q34 0 64.5 8t49.5 26.5t18 49.5q0 36 -21 55t-54 28t-69 16t-68.5 18t-52.5 33.5t-19 63.5q1 44 44 73.5t112 29.5q22 0 49 -5t51.5 -18.5t39.5 -39
t12 -67.5h-28q2 34 -11 54.5t-34 31.5t-44 14.5t-41 3.5q-50 0 -87 -19t-37 -58q0 -32 20.5 -49t53 -25.5t68.5 -15.5t68.5 -19.5t53 -36.5t20.5 -68q0 -39 -21.5 -62.5t-57.5 -34t-80 -10.5zM166 -185v30h11q23 0 26.5 14t3.5 29q-16 -4 -25.5 3.5t-9.5 26.5q0 11 5 19.5
t21 8.5q17 0 21.5 -9.5t4.5 -29.5q0 -31 -3.5 -51.5t-13 -30.5t-27.5 -10h-14z" />
    <glyph glyph-name="uni021A" unicode="&#x21a;" horiz-adv-x="434" 
d="M231 545v-545h-26v545h26zM10 538v25h415v-25h-415zM188 -185v30h11q23 0 26.5 14t3.5 29q-16 -4 -25.5 3.5t-9.5 26.5q0 11 5 19.5t21 8.5q17 0 21.5 -9.5t4.5 -29.5q0 -31 -3.5 -51.5t-13 -30.5t-27.5 -10h-14z" />
    <glyph glyph-name="uni021B" unicode="&#x21b;" horiz-adv-x="247" 
d="M109 0q-25 0 -29.5 16t-4.5 31v339h27v-361h95v-25h-88zM7 379v25q28 0 42.5 2t19.5 11t5.5 31t0.5 61h27v-105h95v-25h-190zM95 -185v30h11q23 0 26.5 14t3.5 29q-16 -4 -25.5 3.5t-9.5 26.5q0 11 5 19.5t21 8.5q17 0 21.5 -9.5t4.5 -29.5q0 -31 -3.5 -51.5t-13 -30.5
t-27.5 -10h-14z" />
    <glyph glyph-name="uni0237" unicode="&#x237;" horiz-adv-x="178" 
d="M62 404h27v-509q0 -15 -4 -31t-30 -16h-64v25h71v531z" />
    <glyph glyph-name="circumflex" unicode="&#x2c6;" horiz-adv-x="385" 
d="M85 461v6l100 98h14l101 -98v-6h-31l-76 82h-2l-75 -82h-31z" />
    <glyph glyph-name="caron" unicode="&#x2c7;" horiz-adv-x="385" 
d="M185 444l-100 106v6h31l75 -90h2l76 90h31v-6l-101 -106h-14z" />
    <glyph glyph-name="breve" unicode="&#x2d8;" horiz-adv-x="311" 
d="M156 459q-47 0 -75 21t-28 55h22q0 -34 24 -42.5t56 -8.5t55.5 8.5t23.5 42.5h23q0 -34 -27 -55t-74 -21z" />
    <glyph glyph-name="dotaccent" unicode="&#x2d9;" horiz-adv-x="157" 
d="M79 473q-16 0 -22 8.5t-6 19.5t6 19t22 8q17 0 22 -8t5 -19t-5 -19.5t-22 -8.5z" />
    <glyph glyph-name="ring" unicode="&#x2da;" horiz-adv-x="247" 
d="M123 465q-37 0 -60 22t-23 59q0 38 22.5 60.5t60.5 22.5t61 -22.5t23 -60.5q0 -35 -23 -58t-61 -23zM123 484q29 0 45.5 18.5t16.5 44.5t-16.5 44.5t-45.5 18.5t-46 -18.5t-17 -44.5q0 -27 18.5 -45t44.5 -18z" />
    <glyph glyph-name="ogonek" unicode="&#x2db;" horiz-adv-x="222" 
d="M114 -199q-24 0 -41 10t-26 27t-9 38q0 26 12 47t30 38t36.5 28t30.5 17l12 6v-13l-14.5 -8.5t-34 -25t-34 -39t-14.5 -50.5q0 -22 13.5 -36.5t38.5 -14.5q21 0 31.5 8.5t14.5 17l4 8.5l22 -15l-7.5 -10.5t-23.5 -21.5t-41 -11z" />
    <glyph glyph-name="tilde" unicode="&#x2dc;" horiz-adv-x="353" 
d="M78 470q-1 17 1 30t8 23t16 15t25 5q21 0 33.5 -8t21 -18.5t18 -18.5t24.5 -8q18 0 21.5 14t3.5 40h25q1 -16 -1 -30t-8 -23.5t-16 -15t-25 -5.5q-20 0 -33 8t-22 18.5t-18.5 18.5t-23.5 8q-17 0 -21.5 -14t-3.5 -39h-25z" />
    <glyph glyph-name="hungarumlaut" unicode="&#x2dd;" horiz-adv-x="282" 
d="M30 461l82 127l30 -13l-96 -121zM140 461l82 127l30 -13l-96 -121z" />
    <glyph glyph-name="gravecomb" unicode="&#x300;" 
d="M109 444l-71 101v11h30l57 -106v-6h-16z" />
    <glyph glyph-name="acutecomb" unicode="&#x301;" 
d="M54 444h-16v6l57 106h30v-11z" />
    <glyph glyph-name="uni0302" unicode="&#x302;" 
d="M85 461v6l100 98h14l101 -98v-6h-31l-76 82h-2l-75 -82h-31z" />
    <glyph glyph-name="tildecomb" unicode="&#x303;" 
d="M78 470q-1 17 1 30t8 23t16 15t25 5q21 0 33.5 -8t21 -18.5t18 -18.5t24.5 -8q18 0 21.5 14t3.5 40h25q1 -16 -1 -30t-8 -23.5t-16 -15t-25 -5.5q-20 0 -33 8t-22 18.5t-18.5 18.5t-23.5 8q-17 0 -21.5 -14t-3.5 -39h-25z" />
    <glyph glyph-name="uni0304" unicode="&#x304;" 
d="M40 467v26h222v-26h-222z" />
    <glyph glyph-name="uni0306" unicode="&#x306;" 
d="M156 459q-47 0 -75 21t-28 55h22q0 -34 24 -42.5t56 -8.5t55.5 8.5t23.5 42.5h23q0 -34 -27 -55t-74 -21z" />
    <glyph glyph-name="uni0307" unicode="&#x307;" 
d="M79 473q-16 0 -22 8.5t-6 19.5t6 19t22 8q17 0 22 -8t5 -19t-5 -19.5t-22 -8.5z" />
    <glyph glyph-name="uni0308" unicode="&#x308;" 
d="M79 465q-20 0 -27 10.5t-7 23.5t7 23t27 10t26.5 -10t6.5 -23t-6.5 -23.5t-26.5 -10.5zM211 465q-20 0 -27 10.5t-7 23.5t7 23t27 10t26.5 -10t6.5 -23t-6.5 -23.5t-26.5 -10.5z" />
    <glyph glyph-name="hookabovecomb" unicode="&#x309;" 
d="M69 463v6q3 14 16.5 23.5t26 20t12.5 26.5q0 14 -9.5 21.5t-21.5 7.5q-11 0 -22.5 -7.5t-16.5 -24.5l-22 6q6 23 24 35t37 12q21 0 37.5 -11.5t16.5 -35.5q0 -23 -13 -35t-25.5 -21t-12.5 -23h-27z" />
    <glyph glyph-name="uni030A" unicode="&#x30a;" 
d="M123 465q-37 0 -60 22t-23 59q0 38 22.5 60.5t60.5 22.5t61 -22.5t23 -60.5q0 -35 -23 -58t-61 -23zM123 484q29 0 45.5 18.5t16.5 44.5t-16.5 44.5t-45.5 18.5t-46 -18.5t-17 -44.5q0 -27 18.5 -45t44.5 -18z" />
    <glyph glyph-name="uni030B" unicode="&#x30b;" 
d="M30 461l82 127l30 -13l-96 -121zM140 461l82 127l30 -13l-96 -121z" />
    <glyph glyph-name="uni030C" unicode="&#x30c;" 
d="M185 444l-100 106v6h31l75 -90h2l76 90h31v-6l-101 -106h-14z" />
    <glyph glyph-name="uni0312" unicode="&#x312;" 
d="M87 457h-16v6l57 106h30v-11z" />
    <glyph glyph-name="uni031B" unicode="&#x31b;" 
d="M45 635l3 23h15q11 0 17 2.5t8 9t2 18.5h41q0 -19 -8.5 -30.5t-23 -17t-33.5 -5.5h-21z" />
    <glyph glyph-name="dotbelowcomb" unicode="&#x323;" 
d="M73 -122q-16 0 -22 8.5t-6 19.5t6 19t22 8q17 0 22 -8t5 -19t-5 -19.5t-22 -8.5z" />
    <glyph glyph-name="uni0326" unicode="&#x326;" 
d="M45 -185v30h11q23 0 26.5 14t3.5 29q-16 -4 -25.5 3.5t-9.5 26.5q0 11 5 19.5t21 8.5q17 0 21.5 -9.5t4.5 -29.5q0 -31 -3.5 -51.5t-13 -30.5t-27.5 -10h-14z" />
    <glyph glyph-name="uni0327" unicode="&#x327;" 
d="M30 -116l15 18q14 -16 35 -25t42 -9q25 0 41.5 11t16.5 33q0 17 -12 24t-28 7q-15 0 -32.5 -6t-31.5 -17l-15 16l37 73l21 -9l-41 -62q11 12 29 19.5t37 7.5q23 0 41.5 -12t18.5 -40q0 -33 -26.5 -50.5t-61.5 -17.5q-22 0 -45.5 10t-40.5 29z" />
    <glyph glyph-name="uni0328" unicode="&#x328;" 
d="M114 -199q-24 0 -41 10t-26 27t-9 38q0 26 12 47t30 38t36.5 28t30.5 17l12 6v-13l-14.5 -8.5t-34 -25t-34 -39t-14.5 -50.5q0 -22 13.5 -36.5t38.5 -14.5q21 0 31.5 8.5t14.5 17l4 8.5l22 -15l-7.5 -10.5t-23.5 -21.5t-41 -11z" />
    <glyph glyph-name="Wgrave" unicode="&#x1e80;" horiz-adv-x="857" 
d="M403 563h29l-15 -40l-186 -523h-46l-185 563h29l180 -547zM807 563h30l-197 -563h-46l-177 523l-13 40h28l184 -547zM433 603l-71 101v11h30l57 -106v-6h-16z" />
    <glyph glyph-name="wgrave" unicode="&#x1e81;" horiz-adv-x="571" 
d="M123 0l-123 392v12h24l116 -380h2l122 380h26l124 -380h2l113 380h24v-12l-119 -392h-41l-115 356h-2l-114 -356h-39zM290 444l-71 101v11h30l57 -106v-6h-16z" />
    <glyph glyph-name="Wacute" unicode="&#x1e82;" horiz-adv-x="857" 
d="M403 563h29l-15 -40l-186 -523h-46l-185 563h29l180 -547zM807 563h30l-197 -563h-46l-177 523l-13 40h28l184 -547zM436 603h-16v6l57 106h30v-11z" />
    <glyph glyph-name="wacute" unicode="&#x1e83;" horiz-adv-x="571" 
d="M123 0l-123 392v12h24l116 -380h2l122 380h26l124 -380h2l113 380h24v-12l-119 -392h-41l-115 356h-2l-114 -356h-39zM293 444h-16v6l57 106h30v-11z" />
    <glyph glyph-name="Wdieresis" unicode="&#x1e84;" horiz-adv-x="857" 
d="M403 563h29l-15 -40l-186 -523h-46l-185 563h29l180 -547zM807 563h30l-197 -563h-46l-177 523l-13 40h28l184 -547zM363 624q-20 0 -27 10.5t-7 23.5t7 23t27 10t26.5 -10t6.5 -23t-6.5 -23.5t-26.5 -10.5zM495 624q-20 0 -27 10.5t-7 23.5t7 23t27 10t26.5 -10t6.5 -23
t-6.5 -23.5t-26.5 -10.5z" />
    <glyph glyph-name="wdieresis" unicode="&#x1e85;" horiz-adv-x="571" 
d="M123 0l-123 392v12h24l116 -380h2l122 380h26l124 -380h2l113 380h24v-12l-119 -392h-41l-115 356h-2l-114 -356h-39zM220 465q-20 0 -27 10.5t-7 23.5t7 23t27 10t26.5 -10t6.5 -23t-6.5 -23.5t-26.5 -10.5zM352 465q-20 0 -27 10.5t-7 23.5t7 23t27 10t26.5 -10
t6.5 -23t-6.5 -23.5t-26.5 -10.5z" />
    <glyph glyph-name="uni1E9E" unicode="&#x1e9e;" horiz-adv-x="530" 
d="M70 -120v723h390v-723h-390zM96 -96h338v675h-338v-675z" />
    <glyph glyph-name="uni1EA0" unicode="&#x1ea0;" horiz-adv-x="516" 
d="M20 0l216 563h44l218 -563h-28l-211 550l-213 -550h-26zM115 194l11 27h265l11 -27h-287zM258 -122q-16 0 -22 8.5t-6 19.5t6 19t22 8q17 0 22 -8t5 -19t-5 -19.5t-22 -8.5z" />
    <glyph glyph-name="uni1EA1" unicode="&#x1ea1;" horiz-adv-x="400" 
d="M185 -9q-56 0 -94 28.5t-57 76t-19 104.5q0 60 20 107t58 74.5t92 27.5q27 0 50 -7t41.5 -20t32.5 -30.5t23 -39.5h1v92h27v-404h-21l-5 90h-2q-10 -22 -24 -40t-32.5 -31.5t-41 -20.5t-49.5 -7zM193 19q45 0 76 21t47 61.5t16 97.5q0 62 -17 102t-48 60t-74 20
q-49 0 -82.5 -23.5t-50 -64t-16.5 -93.5q0 -54 17 -95t50.5 -63.5t81.5 -22.5zM200 -122q-16 0 -22 8.5t-6 19.5t6 19t22 8q17 0 22 -8t5 -19t-5 -19.5t-22 -8.5z" />
    <glyph glyph-name="uni1EA2" unicode="&#x1ea2;" horiz-adv-x="516" 
d="M20 0l216 563h44l218 -563h-28l-211 550l-213 -550h-26zM115 194l11 27h265l11 -27h-287zM241 622v6q3 14 16.5 23.5t26 20t12.5 26.5q0 14 -9.5 21.5t-21.5 7.5q-11 0 -22.5 -7.5t-16.5 -24.5l-22 6q6 23 24 35t37 12q21 0 37.5 -11.5t16.5 -35.5q0 -23 -13 -35
t-25.5 -21t-12.5 -23h-27z" />
    <glyph glyph-name="uni1EA3" unicode="&#x1ea3;" horiz-adv-x="400" 
d="M185 -9q-56 0 -94 28.5t-57 76t-19 104.5q0 60 20 107t58 74.5t92 27.5q27 0 50 -7t41.5 -20t32.5 -30.5t23 -39.5h1v92h27v-404h-21l-5 90h-2q-10 -22 -24 -40t-32.5 -31.5t-41 -20.5t-49.5 -7zM193 19q45 0 76 21t47 61.5t16 97.5q0 62 -17 102t-48 60t-74 20
q-49 0 -82.5 -23.5t-50 -64t-16.5 -93.5q0 -54 17 -95t50.5 -63.5t81.5 -22.5zM183 463v6q3 14 16.5 23.5t26 20t12.5 26.5q0 14 -9.5 21.5t-21.5 7.5q-11 0 -22.5 -7.5t-16.5 -24.5l-22 6q6 23 24 35t37 12q21 0 37.5 -11.5t16.5 -35.5q0 -23 -13 -35t-25.5 -21t-12.5 -23
h-27z" />
    <glyph glyph-name="uni1EA4" unicode="&#x1ea4;" horiz-adv-x="516" 
d="M20 0l216 563h44l218 -563h-28l-211 550l-213 -550h-26zM115 194l11 27h265l11 -27h-287zM151 620v6l100 98h14l101 -98v-6h-31l-76 82h-2l-75 -82h-31zM370 702h-16v6l57 106h30v-11z" />
    <glyph glyph-name="uni1EA5" unicode="&#x1ea5;" horiz-adv-x="400" 
d="M185 -9q-56 0 -94 28.5t-57 76t-19 104.5q0 60 20 107t58 74.5t92 27.5q27 0 50 -7t41.5 -20t32.5 -30.5t23 -39.5h1v92h27v-404h-21l-5 90h-2q-10 -22 -24 -40t-32.5 -31.5t-41 -20.5t-49.5 -7zM193 19q45 0 76 21t47 61.5t16 97.5q0 62 -17 102t-48 60t-74 20
q-49 0 -82.5 -23.5t-50 -64t-16.5 -93.5q0 -54 17 -95t50.5 -63.5t81.5 -22.5zM93 461v6l100 98h14l101 -98v-6h-31l-76 82h-2l-75 -82h-31zM312 543h-16v6l57 106h30v-11z" />
    <glyph glyph-name="uni1EA6" unicode="&#x1ea6;" horiz-adv-x="516" 
d="M20 0l216 563h44l218 -563h-28l-211 550l-213 -550h-26zM115 194l11 27h265l11 -27h-287zM358 702l-71 101v11h30l57 -106v-6h-16zM143 620v6l100 98h14l101 -98v-6h-31l-76 82h-2l-75 -82h-31z" />
    <glyph glyph-name="uni1EA7" unicode="&#x1ea7;" horiz-adv-x="400" 
d="M185 -9q-56 0 -94 28.5t-57 76t-19 104.5q0 60 20 107t58 74.5t92 27.5q27 0 50 -7t41.5 -20t32.5 -30.5t23 -39.5h1v92h27v-404h-21l-5 90h-2q-10 -22 -24 -40t-32.5 -31.5t-41 -20.5t-49.5 -7zM193 19q45 0 76 21t47 61.5t16 97.5q0 62 -17 102t-48 60t-74 20
q-49 0 -82.5 -23.5t-50 -64t-16.5 -93.5q0 -54 17 -95t50.5 -63.5t81.5 -22.5zM300 543l-71 101v11h30l57 -106v-6h-16zM85 461v6l100 98h14l101 -98v-6h-31l-76 82h-2l-75 -82h-31z" />
    <glyph glyph-name="uni1EA8" unicode="&#x1ea8;" horiz-adv-x="516" 
d="M20 0l216 563h44l218 -563h-28l-211 550l-213 -550h-26zM115 194l11 27h265l11 -27h-287zM143 620v6l100 98h14l101 -98v-6h-31l-76 82h-2l-75 -82h-31zM344 711v6q3 14 16.5 23.5t26 20t12.5 26.5q0 14 -9.5 21.5t-21.5 7.5q-11 0 -22.5 -7.5t-16.5 -24.5l-22 6
q6 23 24 35t37 12q21 0 37.5 -11.5t16.5 -35.5q0 -23 -13 -35t-25.5 -21t-12.5 -23h-27z" />
    <glyph glyph-name="uni1EA9" unicode="&#x1ea9;" horiz-adv-x="400" 
d="M185 -9q-56 0 -94 28.5t-57 76t-19 104.5q0 60 20 107t58 74.5t92 27.5q27 0 50 -7t41.5 -20t32.5 -30.5t23 -39.5h1v92h27v-404h-21l-5 90h-2q-10 -22 -24 -40t-32.5 -31.5t-41 -20.5t-49.5 -7zM193 19q45 0 76 21t47 61.5t16 97.5q0 62 -17 102t-48 60t-74 20
q-49 0 -82.5 -23.5t-50 -64t-16.5 -93.5q0 -54 17 -95t50.5 -63.5t81.5 -22.5zM85 461v6l100 98h14l101 -98v-6h-31l-76 82h-2l-75 -82h-31zM286 552v6q3 14 16.5 23.5t26 20t12.5 26.5q0 14 -9.5 21.5t-21.5 7.5q-11 0 -22.5 -7.5t-16.5 -24.5l-22 6q6 23 24 35t37 12
q21 0 37.5 -11.5t16.5 -35.5q0 -23 -13 -35t-25.5 -21t-12.5 -23h-27z" />
    <glyph glyph-name="uni1EAA" unicode="&#x1eaa;" horiz-adv-x="516" 
d="M20 0l216 563h44l218 -563h-28l-211 550l-213 -550h-26zM115 194l11 27h265l11 -27h-287zM151 620v6l100 98h14l101 -98v-6h-31l-76 82h-2l-75 -82h-31zM159 774q-1 17 1 30t8 23t16 15t25 5q21 0 33.5 -8t21 -18.5t18 -18.5t24.5 -8q18 0 21.5 14t3.5 40h25
q1 -16 -1 -30t-8 -23.5t-16 -15t-25 -5.5q-20 0 -33 8t-22 18.5t-18.5 18.5t-23.5 8q-17 0 -21.5 -14t-3.5 -39h-25z" />
    <glyph glyph-name="uni1EAB" unicode="&#x1eab;" horiz-adv-x="400" 
d="M185 -9q-56 0 -94 28.5t-57 76t-19 104.5q0 60 20 107t58 74.5t92 27.5q27 0 50 -7t41.5 -20t32.5 -30.5t23 -39.5h1v92h27v-404h-21l-5 90h-2q-10 -22 -24 -40t-32.5 -31.5t-41 -20.5t-49.5 -7zM193 19q45 0 76 21t47 61.5t16 97.5q0 62 -17 102t-48 60t-74 20
q-49 0 -82.5 -23.5t-50 -64t-16.5 -93.5q0 -54 17 -95t50.5 -63.5t81.5 -22.5zM93 461v6l100 98h14l101 -98v-6h-31l-76 82h-2l-75 -82h-31zM101 615q-1 17 1 30t8 23t16 15t25 5q21 0 33.5 -8t21 -18.5t18 -18.5t24.5 -8q18 0 21.5 14t3.5 40h25q1 -16 -1 -30t-8 -23.5
t-16 -15t-25 -5.5q-20 0 -33 8t-22 18.5t-18.5 18.5t-23.5 8q-17 0 -21.5 -14t-3.5 -39h-25z" />
    <glyph glyph-name="uni1EAC" unicode="&#x1eac;" horiz-adv-x="516" 
d="M20 0l216 563h44l218 -563h-28l-211 550l-213 -550h-26zM115 194l11 27h265l11 -27h-287zM258 -122q-16 0 -22 8.5t-6 19.5t6 19t22 8q17 0 22 -8t5 -19t-5 -19.5t-22 -8.5zM150 620v6l100 98h14l101 -98v-6h-31l-76 82h-2l-75 -82h-31z" />
    <glyph glyph-name="uni1EAD" unicode="&#x1ead;" horiz-adv-x="400" 
d="M185 -9q-56 0 -94 28.5t-57 76t-19 104.5q0 60 20 107t58 74.5t92 27.5q27 0 50 -7t41.5 -20t32.5 -30.5t23 -39.5h1v92h27v-404h-21l-5 90h-2q-10 -22 -24 -40t-32.5 -31.5t-41 -20.5t-49.5 -7zM193 19q45 0 76 21t47 61.5t16 97.5q0 62 -17 102t-48 60t-74 20
q-49 0 -82.5 -23.5t-50 -64t-16.5 -93.5q0 -54 17 -95t50.5 -63.5t81.5 -22.5zM200 -122q-16 0 -22 8.5t-6 19.5t6 19t22 8q17 0 22 -8t5 -19t-5 -19.5t-22 -8.5zM92 461v6l100 98h14l101 -98v-6h-31l-76 82h-2l-75 -82h-31z" />
    <glyph glyph-name="uni1EAE" unicode="&#x1eae;" horiz-adv-x="516" 
d="M20 0l216 563h44l218 -563h-28l-211 550l-213 -550h-26zM115 194l11 27h265l11 -27h-287zM259 618q-47 0 -75 21t-28 55h22q0 -34 24 -42.5t56 -8.5t55.5 8.5t23.5 42.5h23q0 -34 -27 -55t-74 -21zM265 706h-16v6l57 106h30v-11z" />
    <glyph glyph-name="uni1EAF" unicode="&#x1eaf;" horiz-adv-x="400" 
d="M185 -9q-56 0 -94 28.5t-57 76t-19 104.5q0 60 20 107t58 74.5t92 27.5q27 0 50 -7t41.5 -20t32.5 -30.5t23 -39.5h1v92h27v-404h-21l-5 90h-2q-10 -22 -24 -40t-32.5 -31.5t-41 -20.5t-49.5 -7zM193 19q45 0 76 21t47 61.5t16 97.5q0 62 -17 102t-48 60t-74 20
q-49 0 -82.5 -23.5t-50 -64t-16.5 -93.5q0 -54 17 -95t50.5 -63.5t81.5 -22.5zM201 459q-47 0 -75 21t-28 55h22q0 -34 24 -42.5t56 -8.5t55.5 8.5t23.5 42.5h23q0 -34 -27 -55t-74 -21zM207 547h-16v6l57 106h30v-11z" />
    <glyph glyph-name="uni1EB0" unicode="&#x1eb0;" horiz-adv-x="516" 
d="M20 0l216 563h44l218 -563h-28l-211 550l-213 -550h-26zM115 194l11 27h265l11 -27h-287zM259 618q-47 0 -75 21t-28 55h22q0 -34 24 -42.5t56 -8.5t55.5 8.5t23.5 42.5h23q0 -34 -27 -55t-74 -21zM262 706l-71 101v11h30l57 -106v-6h-16z" />
    <glyph glyph-name="uni1EB1" unicode="&#x1eb1;" horiz-adv-x="400" 
d="M185 -9q-56 0 -94 28.5t-57 76t-19 104.5q0 60 20 107t58 74.5t92 27.5q27 0 50 -7t41.5 -20t32.5 -30.5t23 -39.5h1v92h27v-404h-21l-5 90h-2q-10 -22 -24 -40t-32.5 -31.5t-41 -20.5t-49.5 -7zM193 19q45 0 76 21t47 61.5t16 97.5q0 62 -17 102t-48 60t-74 20
q-49 0 -82.5 -23.5t-50 -64t-16.5 -93.5q0 -54 17 -95t50.5 -63.5t81.5 -22.5zM201 459q-47 0 -75 21t-28 55h22q0 -34 24 -42.5t56 -8.5t55.5 8.5t23.5 42.5h23q0 -34 -27 -55t-74 -21zM204 547l-71 101v11h30l57 -106v-6h-16z" />
    <glyph glyph-name="uni1EB2" unicode="&#x1eb2;" horiz-adv-x="516" 
d="M20 0l216 563h44l218 -563h-28l-211 550l-213 -550h-26zM115 194l11 27h265l11 -27h-287zM259 618q-47 0 -75 21t-28 55h22q0 -34 24 -42.5t56 -8.5t55.5 8.5t23.5 42.5h23q0 -34 -27 -55t-74 -21zM241 725v6q3 14 16.5 23.5t26 20t12.5 26.5q0 14 -9.5 21.5t-21.5 7.5
q-11 0 -22.5 -7.5t-16.5 -24.5l-22 6q6 23 24 35t37 12q21 0 37.5 -11.5t16.5 -35.5q0 -23 -13 -35t-25.5 -21t-12.5 -23h-27z" />
    <glyph glyph-name="uni1EB3" unicode="&#x1eb3;" horiz-adv-x="400" 
d="M185 -9q-56 0 -94 28.5t-57 76t-19 104.5q0 60 20 107t58 74.5t92 27.5q27 0 50 -7t41.5 -20t32.5 -30.5t23 -39.5h1v92h27v-404h-21l-5 90h-2q-10 -22 -24 -40t-32.5 -31.5t-41 -20.5t-49.5 -7zM193 19q45 0 76 21t47 61.5t16 97.5q0 62 -17 102t-48 60t-74 20
q-49 0 -82.5 -23.5t-50 -64t-16.5 -93.5q0 -54 17 -95t50.5 -63.5t81.5 -22.5zM201 459q-47 0 -75 21t-28 55h22q0 -34 24 -42.5t56 -8.5t55.5 8.5t23.5 42.5h23q0 -34 -27 -55t-74 -21zM183 566v6q3 14 16.5 23.5t26 20t12.5 26.5q0 14 -9.5 21.5t-21.5 7.5
q-11 0 -22.5 -7.5t-16.5 -24.5l-22 6q6 23 24 35t37 12q21 0 37.5 -11.5t16.5 -35.5q0 -23 -13 -35t-25.5 -21t-12.5 -23h-27z" />
    <glyph glyph-name="uni1EB4" unicode="&#x1eb4;" horiz-adv-x="516" 
d="M20 0l216 563h44l218 -563h-28l-211 550l-213 -550h-26zM115 194l11 27h265l11 -27h-287zM259 618q-47 0 -75 21t-28 55h22q0 -34 24 -42.5t56 -8.5t55.5 8.5t23.5 42.5h23q0 -34 -27 -55t-74 -21zM159 732q-1 17 1 30t8 23t16 15t25 5q21 0 33.5 -8t21 -18.5t18 -18.5
t24.5 -8q18 0 21.5 14t3.5 40h25q1 -16 -1 -30t-8 -23.5t-16 -15t-25 -5.5q-20 0 -33 8t-22 18.5t-18.5 18.5t-23.5 8q-17 0 -21.5 -14t-3.5 -39h-25z" />
    <glyph glyph-name="uni1EB5" unicode="&#x1eb5;" horiz-adv-x="400" 
d="M185 -9q-56 0 -94 28.5t-57 76t-19 104.5q0 60 20 107t58 74.5t92 27.5q27 0 50 -7t41.5 -20t32.5 -30.5t23 -39.5h1v92h27v-404h-21l-5 90h-2q-10 -22 -24 -40t-32.5 -31.5t-41 -20.5t-49.5 -7zM193 19q45 0 76 21t47 61.5t16 97.5q0 62 -17 102t-48 60t-74 20
q-49 0 -82.5 -23.5t-50 -64t-16.5 -93.5q0 -54 17 -95t50.5 -63.5t81.5 -22.5zM201 459q-47 0 -75 21t-28 55h22q0 -34 24 -42.5t56 -8.5t55.5 8.5t23.5 42.5h23q0 -34 -27 -55t-74 -21zM101 573q-1 17 1 30t8 23t16 15t25 5q21 0 33.5 -8t21 -18.5t18 -18.5t24.5 -8
q18 0 21.5 14t3.5 40h25q1 -16 -1 -30t-8 -23.5t-16 -15t-25 -5.5q-20 0 -33 8t-22 18.5t-18.5 18.5t-23.5 8q-17 0 -21.5 -14t-3.5 -39h-25z" />
    <glyph glyph-name="uni1EB6" unicode="&#x1eb6;" horiz-adv-x="516" 
d="M20 0l216 563h44l218 -563h-28l-211 550l-213 -550h-26zM115 194l11 27h265l11 -27h-287zM258 -122q-16 0 -22 8.5t-6 19.5t6 19t22 8q17 0 22 -8t5 -19t-5 -19.5t-22 -8.5zM259 618q-47 0 -75 21t-28 55h22q0 -34 24 -42.5t56 -8.5t55.5 8.5t23.5 42.5h23q0 -34 -27 -55
t-74 -21z" />
    <glyph glyph-name="uni1EB7" unicode="&#x1eb7;" horiz-adv-x="400" 
d="M185 -9q-56 0 -94 28.5t-57 76t-19 104.5q0 60 20 107t58 74.5t92 27.5q27 0 50 -7t41.5 -20t32.5 -30.5t23 -39.5h1v92h27v-404h-21l-5 90h-2q-10 -22 -24 -40t-32.5 -31.5t-41 -20.5t-49.5 -7zM193 19q45 0 76 21t47 61.5t16 97.5q0 62 -17 102t-48 60t-74 20
q-49 0 -82.5 -23.5t-50 -64t-16.5 -93.5q0 -54 17 -95t50.5 -63.5t81.5 -22.5zM200 -122q-16 0 -22 8.5t-6 19.5t6 19t22 8q17 0 22 -8t5 -19t-5 -19.5t-22 -8.5zM201 459q-47 0 -75 21t-28 55h22q0 -34 24 -42.5t56 -8.5t55.5 8.5t23.5 42.5h23q0 -34 -27 -55t-74 -21z" />
    <glyph glyph-name="uni1EB8" unicode="&#x1eb8;" horiz-adv-x="457" 
d="M60 0v563h353v-26h-326v-239h265v-26h-265v-247h335v-25h-362zM229 -122q-16 0 -22 8.5t-6 19.5t6 19t22 8q17 0 22 -8t5 -19t-5 -19.5t-22 -8.5z" />
    <glyph glyph-name="uni1EB9" unicode="&#x1eb9;" horiz-adv-x="439" 
d="M217 -10q-63 0 -105 31t-62.5 80t-19.5 101q1 51 22 97.5t62.5 75.5t102.5 29q49 0 87 -22t61.5 -62t27.5 -94q1 -6 1 -12.5v-12.5h-337q0 -84 41.5 -135t118.5 -51q56 0 97.5 29.5t51.5 80.5h27q-8 -40 -33 -70.5t-62 -47.5t-81 -17zM60 226h306q-1 23 -10 49.5t-27 50
t-46 38.5t-66 15q-34 0 -61 -11.5t-47 -32t-32.5 -48.5t-16.5 -61zM220 -122q-16 0 -22 8.5t-6 19.5t6 19t22 8q17 0 22 -8t5 -19t-5 -19.5t-22 -8.5z" />
    <glyph glyph-name="uni1EBA" unicode="&#x1eba;" horiz-adv-x="457" 
d="M60 0v563h353v-26h-326v-239h265v-26h-265v-247h335v-25h-362zM212 622v6q3 14 16.5 23.5t26 20t12.5 26.5q0 14 -9.5 21.5t-21.5 7.5q-11 0 -22.5 -7.5t-16.5 -24.5l-22 6q6 23 24 35t37 12q21 0 37.5 -11.5t16.5 -35.5q0 -23 -13 -35t-25.5 -21t-12.5 -23h-27z" />
    <glyph glyph-name="uni1EBB" unicode="&#x1ebb;" horiz-adv-x="439" 
d="M217 -10q-63 0 -105 31t-62.5 80t-19.5 101q1 51 22 97.5t62.5 75.5t102.5 29q49 0 87 -22t61.5 -62t27.5 -94q1 -6 1 -12.5v-12.5h-337q0 -84 41.5 -135t118.5 -51q56 0 97.5 29.5t51.5 80.5h27q-8 -40 -33 -70.5t-62 -47.5t-81 -17zM60 226h306q-1 23 -10 49.5t-27 50
t-46 38.5t-66 15q-34 0 -61 -11.5t-47 -32t-32.5 -48.5t-16.5 -61zM203 463v6q3 14 16.5 23.5t26 20t12.5 26.5q0 14 -9.5 21.5t-21.5 7.5q-11 0 -22.5 -7.5t-16.5 -24.5l-22 6q6 23 24 35t37 12q21 0 37.5 -11.5t16.5 -35.5q0 -23 -13 -35t-25.5 -21t-12.5 -23h-27z" />
    <glyph glyph-name="uni1EBC" unicode="&#x1ebc;" horiz-adv-x="457" 
d="M60 0v563h353v-26h-326v-239h265v-26h-265v-247h335v-25h-362zM130 629q-1 17 1 30t8 23t16 15t25 5q21 0 33.5 -8t21 -18.5t18 -18.5t24.5 -8q18 0 21.5 14t3.5 40h25q1 -16 -1 -30t-8 -23.5t-16 -15t-25 -5.5q-20 0 -33 8t-22 18.5t-18.5 18.5t-23.5 8q-17 0 -21.5 -14
t-3.5 -39h-25z" />
    <glyph glyph-name="uni1EBD" unicode="&#x1ebd;" horiz-adv-x="439" 
d="M217 -10q-63 0 -105 31t-62.5 80t-19.5 101q1 51 22 97.5t62.5 75.5t102.5 29q49 0 87 -22t61.5 -62t27.5 -94q1 -6 1 -12.5v-12.5h-337q0 -84 41.5 -135t118.5 -51q56 0 97.5 29.5t51.5 80.5h27q-8 -40 -33 -70.5t-62 -47.5t-81 -17zM60 226h306q-1 23 -10 49.5t-27 50
t-46 38.5t-66 15q-34 0 -61 -11.5t-47 -32t-32.5 -48.5t-16.5 -61zM121 470q-1 17 1 30t8 23t16 15t25 5q21 0 33.5 -8t21 -18.5t18 -18.5t24.5 -8q18 0 21.5 14t3.5 40h25q1 -16 -1 -30t-8 -23.5t-16 -15t-25 -5.5q-20 0 -33 8t-22 18.5t-18.5 18.5t-23.5 8
q-17 0 -21.5 -14t-3.5 -39h-25z" />
    <glyph glyph-name="uni1EBE" unicode="&#x1ebe;" horiz-adv-x="457" 
d="M60 0v563h353v-26h-326v-239h265v-26h-265v-247h335v-25h-362zM122 620v6l100 98h14l101 -98v-6h-31l-76 82h-2l-75 -82h-31zM341 702h-16v6l57 106h30v-11z" />
    <glyph glyph-name="uni1EBF" unicode="&#x1ebf;" horiz-adv-x="439" 
d="M217 -10q-63 0 -105 31t-62.5 80t-19.5 101q1 51 22 97.5t62.5 75.5t102.5 29q49 0 87 -22t61.5 -62t27.5 -94q1 -6 1 -12.5v-12.5h-337q0 -84 41.5 -135t118.5 -51q56 0 97.5 29.5t51.5 80.5h27q-8 -40 -33 -70.5t-62 -47.5t-81 -17zM60 226h306q-1 23 -10 49.5t-27 50
t-46 38.5t-66 15q-34 0 -61 -11.5t-47 -32t-32.5 -48.5t-16.5 -61zM113 461v6l100 98h14l101 -98v-6h-31l-76 82h-2l-75 -82h-31zM332 543h-16v6l57 106h30v-11z" />
    <glyph glyph-name="uni1EC0" unicode="&#x1ec0;" horiz-adv-x="457" 
d="M60 0v563h353v-26h-326v-239h265v-26h-265v-247h335v-25h-362zM329 702l-71 101v11h30l57 -106v-6h-16zM114 620v6l100 98h14l101 -98v-6h-31l-76 82h-2l-75 -82h-31z" />
    <glyph glyph-name="uni1EC1" unicode="&#x1ec1;" horiz-adv-x="439" 
d="M217 -10q-63 0 -105 31t-62.5 80t-19.5 101q1 51 22 97.5t62.5 75.5t102.5 29q49 0 87 -22t61.5 -62t27.5 -94q1 -6 1 -12.5v-12.5h-337q0 -84 41.5 -135t118.5 -51q56 0 97.5 29.5t51.5 80.5h27q-8 -40 -33 -70.5t-62 -47.5t-81 -17zM60 226h306q-1 23 -10 49.5t-27 50
t-46 38.5t-66 15q-34 0 -61 -11.5t-47 -32t-32.5 -48.5t-16.5 -61zM320 543l-71 101v11h30l57 -106v-6h-16zM105 461v6l100 98h14l101 -98v-6h-31l-76 82h-2l-75 -82h-31z" />
    <glyph glyph-name="uni1EC2" unicode="&#x1ec2;" horiz-adv-x="457" 
d="M60 0v563h353v-26h-326v-239h265v-26h-265v-247h335v-25h-362zM114 620v6l100 98h14l101 -98v-6h-31l-76 82h-2l-75 -82h-31zM315 711v6q3 14 16.5 23.5t26 20t12.5 26.5q0 14 -9.5 21.5t-21.5 7.5q-11 0 -22.5 -7.5t-16.5 -24.5l-22 6q6 23 24 35t37 12q21 0 37.5 -11.5
t16.5 -35.5q0 -23 -13 -35t-25.5 -21t-12.5 -23h-27z" />
    <glyph glyph-name="uni1EC3" unicode="&#x1ec3;" horiz-adv-x="439" 
d="M217 -10q-63 0 -105 31t-62.5 80t-19.5 101q1 51 22 97.5t62.5 75.5t102.5 29q49 0 87 -22t61.5 -62t27.5 -94q1 -6 1 -12.5v-12.5h-337q0 -84 41.5 -135t118.5 -51q56 0 97.5 29.5t51.5 80.5h27q-8 -40 -33 -70.5t-62 -47.5t-81 -17zM60 226h306q-1 23 -10 49.5t-27 50
t-46 38.5t-66 15q-34 0 -61 -11.5t-47 -32t-32.5 -48.5t-16.5 -61zM105 461v6l100 98h14l101 -98v-6h-31l-76 82h-2l-75 -82h-31zM306 552v6q3 14 16.5 23.5t26 20t12.5 26.5q0 14 -9.5 21.5t-21.5 7.5q-11 0 -22.5 -7.5t-16.5 -24.5l-22 6q6 23 24 35t37 12
q21 0 37.5 -11.5t16.5 -35.5q0 -23 -13 -35t-25.5 -21t-12.5 -23h-27z" />
    <glyph glyph-name="uni1EC4" unicode="&#x1ec4;" horiz-adv-x="457" 
d="M60 0v563h353v-26h-326v-239h265v-26h-265v-247h335v-25h-362zM122 620v6l100 98h14l101 -98v-6h-31l-76 82h-2l-75 -82h-31zM130 774q-1 17 1 30t8 23t16 15t25 5q21 0 33.5 -8t21 -18.5t18 -18.5t24.5 -8q18 0 21.5 14t3.5 40h25q1 -16 -1 -30t-8 -23.5t-16 -15
t-25 -5.5q-20 0 -33 8t-22 18.5t-18.5 18.5t-23.5 8q-17 0 -21.5 -14t-3.5 -39h-25z" />
    <glyph glyph-name="uni1EC5" unicode="&#x1ec5;" horiz-adv-x="439" 
d="M217 -10q-63 0 -105 31t-62.5 80t-19.5 101q1 51 22 97.5t62.5 75.5t102.5 29q49 0 87 -22t61.5 -62t27.5 -94q1 -6 1 -12.5v-12.5h-337q0 -84 41.5 -135t118.5 -51q56 0 97.5 29.5t51.5 80.5h27q-8 -40 -33 -70.5t-62 -47.5t-81 -17zM60 226h306q-1 23 -10 49.5t-27 50
t-46 38.5t-66 15q-34 0 -61 -11.5t-47 -32t-32.5 -48.5t-16.5 -61zM113 461v6l100 98h14l101 -98v-6h-31l-76 82h-2l-75 -82h-31zM121 615q-1 17 1 30t8 23t16 15t25 5q21 0 33.5 -8t21 -18.5t18 -18.5t24.5 -8q18 0 21.5 14t3.5 40h25q1 -16 -1 -30t-8 -23.5t-16 -15
t-25 -5.5q-20 0 -33 8t-22 18.5t-18.5 18.5t-23.5 8q-17 0 -21.5 -14t-3.5 -39h-25z" />
    <glyph glyph-name="uni1EC6" unicode="&#x1ec6;" horiz-adv-x="457" 
d="M60 0v563h353v-26h-326v-239h265v-26h-265v-247h335v-25h-362zM229 -122q-16 0 -22 8.5t-6 19.5t6 19t22 8q17 0 22 -8t5 -19t-5 -19.5t-22 -8.5zM121 620v6l100 98h14l101 -98v-6h-31l-76 82h-2l-75 -82h-31z" />
    <glyph glyph-name="uni1EC7" unicode="&#x1ec7;" horiz-adv-x="439" 
d="M217 -10q-63 0 -105 31t-62.5 80t-19.5 101q1 51 22 97.5t62.5 75.5t102.5 29q49 0 87 -22t61.5 -62t27.5 -94q1 -6 1 -12.5v-12.5h-337q0 -84 41.5 -135t118.5 -51q56 0 97.5 29.5t51.5 80.5h27q-8 -40 -33 -70.5t-62 -47.5t-81 -17zM60 226h306q-1 23 -10 49.5t-27 50
t-46 38.5t-66 15q-34 0 -61 -11.5t-47 -32t-32.5 -48.5t-16.5 -61zM220 -122q-16 0 -22 8.5t-6 19.5t6 19t22 8q17 0 22 -8t5 -19t-5 -19.5t-22 -8.5zM112 461v6l100 98h14l101 -98v-6h-31l-76 82h-2l-75 -82h-31z" />
    <glyph glyph-name="uni1EC8" unicode="&#x1ec8;" horiz-adv-x="305" 
d="M135 18v527h26v-527h-26zM55 0v24h185v-24h-185zM55 538v25h185v-25h-185zM131 622v6q3 14 16.5 23.5t26 20t12.5 26.5q0 14 -9.5 21.5t-21.5 7.5q-11 0 -22.5 -7.5t-16.5 -24.5l-22 6q6 23 24 35t37 12q21 0 37.5 -11.5t16.5 -35.5q0 -23 -13 -35t-25.5 -21t-12.5 -23
h-27z" />
    <glyph glyph-name="uni1EC9" unicode="&#x1ec9;" horiz-adv-x="138" 
d="M55 0v404h26v-404h-26zM51 463v6q3 14 16.5 23.5t26 20t12.5 26.5q0 14 -9.5 21.5t-21.5 7.5q-11 0 -22.5 -7.5t-16.5 -24.5l-22 6q6 23 24 35t37 12q21 0 37.5 -11.5t16.5 -35.5q0 -23 -13 -35t-25.5 -21t-12.5 -23h-27z" />
    <glyph glyph-name="uni1ECA" unicode="&#x1eca;" horiz-adv-x="305" 
d="M135 18v527h26v-527h-26zM55 0v24h185v-24h-185zM55 538v25h185v-25h-185zM153 -122q-16 0 -22 8.5t-6 19.5t6 19t22 8q17 0 22 -8t5 -19t-5 -19.5t-22 -8.5z" />
    <glyph glyph-name="uni1ECB" unicode="&#x1ecb;" horiz-adv-x="138" 
d="M55 0v404h27v-404h-27zM69 473q-16 0 -22 8.5t-6 19.5t6 19t22 8q17 0 22 -8t5 -19t-5 -19.5t-22 -8.5zM69 -122q-16 0 -22 8.5t-6 19.5t6 19t22 8q17 0 22 -8t5 -19t-5 -19.5t-22 -8.5z" />
    <glyph glyph-name="uni1ECC" unicode="&#x1ecc;" horiz-adv-x="597" 
d="M291 -14q-130 0 -198 79.5t-68 214.5q0 89 29.5 154.5t88.5 102t148 36.5q131 0 198.5 -79.5t67.5 -213.5q0 -87 -30 -153.5t-89 -103.5t-147 -37zM291 11q80 0 133 33t80 93.5t27 142.5t-26 142t-79.5 93t-134.5 33q-118 0 -179 -70t-61 -198q0 -81 26 -141.5t79.5 -94
t134.5 -33.5zM299 -122q-16 0 -22 8.5t-6 19.5t6 19t22 8q17 0 22 -8t5 -19t-5 -19.5t-22 -8.5z" />
    <glyph glyph-name="uni1ECD" unicode="&#x1ecd;" horiz-adv-x="442" 
d="M214 -10q-61 0 -102 26.5t-61.5 73t-20.5 106.5q0 61 20.5 108t61.5 73.5t102 26.5q89 0 136 -57t47 -151q0 -58 -19.5 -105t-60 -74t-103.5 -27zM214 16q60 0 93.5 27t47.5 68.5t14 84.5q0 44 -14 86t-47.5 69t-93.5 27q-59 0 -93.5 -27t-48.5 -69t-14 -86
q0 -43 14 -84.5t48.5 -68.5t93.5 -27zM221 -122q-16 0 -22 8.5t-6 19.5t6 19t22 8q17 0 22 -8t5 -19t-5 -19.5t-22 -8.5z" />
    <glyph glyph-name="uni1ECE" unicode="&#x1ece;" horiz-adv-x="597" 
d="M291 -14q-130 0 -198 79.5t-68 214.5q0 89 29.5 154.5t88.5 102t148 36.5q131 0 198.5 -79.5t67.5 -213.5q0 -87 -30 -153.5t-89 -103.5t-147 -37zM291 11q80 0 133 33t80 93.5t27 142.5t-26 142t-79.5 93t-134.5 33q-118 0 -179 -70t-61 -198q0 -81 26 -141.5t79.5 -94
t134.5 -33.5zM282 622v6q3 14 16.5 23.5t26 20t12.5 26.5q0 14 -9.5 21.5t-21.5 7.5q-11 0 -22.5 -7.5t-16.5 -24.5l-22 6q6 23 24 35t37 12q21 0 37.5 -11.5t16.5 -35.5q0 -23 -13 -35t-25.5 -21t-12.5 -23h-27z" />
    <glyph glyph-name="uni1ECF" unicode="&#x1ecf;" horiz-adv-x="442" 
d="M214 -10q-61 0 -102 26.5t-61.5 73t-20.5 106.5q0 61 20.5 108t61.5 73.5t102 26.5q89 0 136 -57t47 -151q0 -58 -19.5 -105t-60 -74t-103.5 -27zM214 16q60 0 93.5 27t47.5 68.5t14 84.5q0 44 -14 86t-47.5 69t-93.5 27q-59 0 -93.5 -27t-48.5 -69t-14 -86
q0 -43 14 -84.5t48.5 -68.5t93.5 -27zM204 463v6q3 14 16.5 23.5t26 20t12.5 26.5q0 14 -9.5 21.5t-21.5 7.5q-11 0 -22.5 -7.5t-16.5 -24.5l-22 6q6 23 24 35t37 12q21 0 37.5 -11.5t16.5 -35.5q0 -23 -13 -35t-25.5 -21t-12.5 -23h-27z" />
    <glyph glyph-name="uni1ED0" unicode="&#x1ed0;" horiz-adv-x="597" 
d="M291 -14q-130 0 -198 79.5t-68 214.5q0 89 29.5 154.5t88.5 102t148 36.5q131 0 198.5 -79.5t67.5 -213.5q0 -87 -30 -153.5t-89 -103.5t-147 -37zM291 11q80 0 133 33t80 93.5t27 142.5t-26 142t-79.5 93t-134.5 33q-118 0 -179 -70t-61 -198q0 -81 26 -141.5t79.5 -94
t134.5 -33.5zM192 620v6l100 98h14l101 -98v-6h-31l-76 82h-2l-75 -82h-31zM411 702h-16v6l57 106h30v-11z" />
    <glyph glyph-name="uni1ED1" unicode="&#x1ed1;" horiz-adv-x="442" 
d="M214 -10q-61 0 -102 26.5t-61.5 73t-20.5 106.5q0 61 20.5 108t61.5 73.5t102 26.5q89 0 136 -57t47 -151q0 -58 -19.5 -105t-60 -74t-103.5 -27zM214 16q60 0 93.5 27t47.5 68.5t14 84.5q0 44 -14 86t-47.5 69t-93.5 27q-59 0 -93.5 -27t-48.5 -69t-14 -86
q0 -43 14 -84.5t48.5 -68.5t93.5 -27zM114 461v6l100 98h14l101 -98v-6h-31l-76 82h-2l-75 -82h-31zM333 543h-16v6l57 106h30v-11z" />
    <glyph glyph-name="uni1ED2" unicode="&#x1ed2;" horiz-adv-x="597" 
d="M291 -14q-130 0 -198 79.5t-68 214.5q0 89 29.5 154.5t88.5 102t148 36.5q131 0 198.5 -79.5t67.5 -213.5q0 -87 -30 -153.5t-89 -103.5t-147 -37zM291 11q80 0 133 33t80 93.5t27 142.5t-26 142t-79.5 93t-134.5 33q-118 0 -179 -70t-61 -198q0 -81 26 -141.5t79.5 -94
t134.5 -33.5zM399 702l-71 101v11h30l57 -106v-6h-16zM184 620v6l100 98h14l101 -98v-6h-31l-76 82h-2l-75 -82h-31z" />
    <glyph glyph-name="uni1ED3" unicode="&#x1ed3;" horiz-adv-x="442" 
d="M214 -10q-61 0 -102 26.5t-61.5 73t-20.5 106.5q0 61 20.5 108t61.5 73.5t102 26.5q89 0 136 -57t47 -151q0 -58 -19.5 -105t-60 -74t-103.5 -27zM214 16q60 0 93.5 27t47.5 68.5t14 84.5q0 44 -14 86t-47.5 69t-93.5 27q-59 0 -93.5 -27t-48.5 -69t-14 -86
q0 -43 14 -84.5t48.5 -68.5t93.5 -27zM321 543l-71 101v11h30l57 -106v-6h-16zM106 461v6l100 98h14l101 -98v-6h-31l-76 82h-2l-75 -82h-31z" />
    <glyph glyph-name="uni1ED4" unicode="&#x1ed4;" horiz-adv-x="597" 
d="M291 -14q-130 0 -198 79.5t-68 214.5q0 89 29.5 154.5t88.5 102t148 36.5q131 0 198.5 -79.5t67.5 -213.5q0 -87 -30 -153.5t-89 -103.5t-147 -37zM291 11q80 0 133 33t80 93.5t27 142.5t-26 142t-79.5 93t-134.5 33q-118 0 -179 -70t-61 -198q0 -81 26 -141.5t79.5 -94
t134.5 -33.5zM184 620v6l100 98h14l101 -98v-6h-31l-76 82h-2l-75 -82h-31zM385 711v6q3 14 16.5 23.5t26 20t12.5 26.5q0 14 -9.5 21.5t-21.5 7.5q-11 0 -22.5 -7.5t-16.5 -24.5l-22 6q6 23 24 35t37 12q21 0 37.5 -11.5t16.5 -35.5q0 -23 -13 -35t-25.5 -21t-12.5 -23h-27
z" />
    <glyph glyph-name="uni1ED5" unicode="&#x1ed5;" horiz-adv-x="442" 
d="M214 -10q-61 0 -102 26.5t-61.5 73t-20.5 106.5q0 61 20.5 108t61.5 73.5t102 26.5q89 0 136 -57t47 -151q0 -58 -19.5 -105t-60 -74t-103.5 -27zM214 16q60 0 93.5 27t47.5 68.5t14 84.5q0 44 -14 86t-47.5 69t-93.5 27q-59 0 -93.5 -27t-48.5 -69t-14 -86
q0 -43 14 -84.5t48.5 -68.5t93.5 -27zM106 461v6l100 98h14l101 -98v-6h-31l-76 82h-2l-75 -82h-31zM307 552v6q3 14 16.5 23.5t26 20t12.5 26.5q0 14 -9.5 21.5t-21.5 7.5q-11 0 -22.5 -7.5t-16.5 -24.5l-22 6q6 23 24 35t37 12q21 0 37.5 -11.5t16.5 -35.5q0 -23 -13 -35
t-25.5 -21t-12.5 -23h-27z" />
    <glyph glyph-name="uni1ED6" unicode="&#x1ed6;" horiz-adv-x="597" 
d="M291 -14q-130 0 -198 79.5t-68 214.5q0 89 29.5 154.5t88.5 102t148 36.5q131 0 198.5 -79.5t67.5 -213.5q0 -87 -30 -153.5t-89 -103.5t-147 -37zM291 11q80 0 133 33t80 93.5t27 142.5t-26 142t-79.5 93t-134.5 33q-118 0 -179 -70t-61 -198q0 -81 26 -141.5t79.5 -94
t134.5 -33.5zM192 620v6l100 98h14l101 -98v-6h-31l-76 82h-2l-75 -82h-31zM200 774q-1 17 1 30t8 23t16 15t25 5q21 0 33.5 -8t21 -18.5t18 -18.5t24.5 -8q18 0 21.5 14t3.5 40h25q1 -16 -1 -30t-8 -23.5t-16 -15t-25 -5.5q-20 0 -33 8t-22 18.5t-18.5 18.5t-23.5 8
q-17 0 -21.5 -14t-3.5 -39h-25z" />
    <glyph glyph-name="uni1ED7" unicode="&#x1ed7;" horiz-adv-x="442" 
d="M214 -10q-61 0 -102 26.5t-61.5 73t-20.5 106.5q0 61 20.5 108t61.5 73.5t102 26.5q89 0 136 -57t47 -151q0 -58 -19.5 -105t-60 -74t-103.5 -27zM214 16q60 0 93.5 27t47.5 68.5t14 84.5q0 44 -14 86t-47.5 69t-93.5 27q-59 0 -93.5 -27t-48.5 -69t-14 -86
q0 -43 14 -84.5t48.5 -68.5t93.5 -27zM114 461v6l100 98h14l101 -98v-6h-31l-76 82h-2l-75 -82h-31zM122 615q-1 17 1 30t8 23t16 15t25 5q21 0 33.5 -8t21 -18.5t18 -18.5t24.5 -8q18 0 21.5 14t3.5 40h25q1 -16 -1 -30t-8 -23.5t-16 -15t-25 -5.5q-20 0 -33 8t-22 18.5
t-18.5 18.5t-23.5 8q-17 0 -21.5 -14t-3.5 -39h-25z" />
    <glyph glyph-name="uni1ED8" unicode="&#x1ed8;" horiz-adv-x="597" 
d="M291 -14q-130 0 -198 79.5t-68 214.5q0 89 29.5 154.5t88.5 102t148 36.5q131 0 198.5 -79.5t67.5 -213.5q0 -87 -30 -153.5t-89 -103.5t-147 -37zM291 11q80 0 133 33t80 93.5t27 142.5t-26 142t-79.5 93t-134.5 33q-118 0 -179 -70t-61 -198q0 -81 26 -141.5t79.5 -94
t134.5 -33.5zM299 -122q-16 0 -22 8.5t-6 19.5t6 19t22 8q17 0 22 -8t5 -19t-5 -19.5t-22 -8.5zM191 620v6l100 98h14l101 -98v-6h-31l-76 82h-2l-75 -82h-31z" />
    <glyph glyph-name="uni1ED9" unicode="&#x1ed9;" horiz-adv-x="442" 
d="M214 -10q-61 0 -102 26.5t-61.5 73t-20.5 106.5q0 61 20.5 108t61.5 73.5t102 26.5q89 0 136 -57t47 -151q0 -58 -19.5 -105t-60 -74t-103.5 -27zM214 16q60 0 93.5 27t47.5 68.5t14 84.5q0 44 -14 86t-47.5 69t-93.5 27q-59 0 -93.5 -27t-48.5 -69t-14 -86
q0 -43 14 -84.5t48.5 -68.5t93.5 -27zM221 -122q-16 0 -22 8.5t-6 19.5t6 19t22 8q17 0 22 -8t5 -19t-5 -19.5t-22 -8.5zM113 461v6l100 98h14l101 -98v-6h-31l-76 82h-2l-75 -82h-31z" />
    <glyph glyph-name="uni1EDA" unicode="&#x1eda;" horiz-adv-x="597" 
d="M291 -14q-130 0 -198 79.5t-68 214.5q0 89 29.5 154.5t88.5 102t148 36.5q131 0 198.5 -79.5t67.5 -213.5q0 -87 -30 -153.5t-89 -103.5t-147 -37zM291 11q80 0 133 33t80 93.5t27 142.5t-26 142t-79.5 93t-134.5 33q-118 0 -179 -70t-61 -198q0 -81 26 -141.5t79.5 -94
t134.5 -33.5zM369 540l3 23h15q11 0 17 2.5t8 9t2 18.5h41q0 -19 -8.5 -30.5t-23 -17t-33.5 -5.5h-21zM306 603h-16v6l57 106h30v-11z" />
    <glyph glyph-name="uni1EDB" unicode="&#x1edb;" horiz-adv-x="442" 
d="M214 -10q-61 0 -102 26.5t-61.5 73t-20.5 106.5q0 61 20.5 108t61.5 73.5t102 26.5q89 0 136 -57t47 -151q0 -58 -19.5 -105t-60 -74t-103.5 -27zM214 16q60 0 93.5 27t47.5 68.5t14 84.5q0 44 -14 86t-47.5 69t-93.5 27q-59 0 -93.5 -27t-48.5 -69t-14 -86
q0 -43 14 -84.5t48.5 -68.5t93.5 -27zM291 363l3 23h15q11 0 17 2.5t8 9t2 18.5h41q0 -19 -8.5 -30.5t-23 -17t-33.5 -5.5h-21zM228 444h-16v6l57 106h30v-11z" />
    <glyph glyph-name="uni1EDC" unicode="&#x1edc;" horiz-adv-x="597" 
d="M291 -14q-130 0 -198 79.5t-68 214.5q0 89 29.5 154.5t88.5 102t148 36.5q131 0 198.5 -79.5t67.5 -213.5q0 -87 -30 -153.5t-89 -103.5t-147 -37zM291 11q80 0 133 33t80 93.5t27 142.5t-26 142t-79.5 93t-134.5 33q-118 0 -179 -70t-61 -198q0 -81 26 -141.5t79.5 -94
t134.5 -33.5zM369 540l3 23h15q11 0 17 2.5t8 9t2 18.5h41q0 -19 -8.5 -30.5t-23 -17t-33.5 -5.5h-21zM303 603l-71 101v11h30l57 -106v-6h-16z" />
    <glyph glyph-name="uni1EDD" unicode="&#x1edd;" horiz-adv-x="442" 
d="M214 -10q-61 0 -102 26.5t-61.5 73t-20.5 106.5q0 61 20.5 108t61.5 73.5t102 26.5q89 0 136 -57t47 -151q0 -58 -19.5 -105t-60 -74t-103.5 -27zM214 16q60 0 93.5 27t47.5 68.5t14 84.5q0 44 -14 86t-47.5 69t-93.5 27q-59 0 -93.5 -27t-48.5 -69t-14 -86
q0 -43 14 -84.5t48.5 -68.5t93.5 -27zM291 363l3 23h15q11 0 17 2.5t8 9t2 18.5h41q0 -19 -8.5 -30.5t-23 -17t-33.5 -5.5h-21zM225 444l-71 101v11h30l57 -106v-6h-16z" />
    <glyph glyph-name="uni1EDE" unicode="&#x1ede;" horiz-adv-x="597" 
d="M291 -14q-130 0 -198 79.5t-68 214.5q0 89 29.5 154.5t88.5 102t148 36.5q131 0 198.5 -79.5t67.5 -213.5q0 -87 -30 -153.5t-89 -103.5t-147 -37zM291 11q80 0 133 33t80 93.5t27 142.5t-26 142t-79.5 93t-134.5 33q-118 0 -179 -70t-61 -198q0 -81 26 -141.5t79.5 -94
t134.5 -33.5zM369 540l3 23h15q11 0 17 2.5t8 9t2 18.5h41q0 -19 -8.5 -30.5t-23 -17t-33.5 -5.5h-21zM282 622v6q3 14 16.5 23.5t26 20t12.5 26.5q0 14 -9.5 21.5t-21.5 7.5q-11 0 -22.5 -7.5t-16.5 -24.5l-22 6q6 23 24 35t37 12q21 0 37.5 -11.5t16.5 -35.5
q0 -23 -13 -35t-25.5 -21t-12.5 -23h-27z" />
    <glyph glyph-name="uni1EDF" unicode="&#x1edf;" horiz-adv-x="442" 
d="M214 -10q-61 0 -102 26.5t-61.5 73t-20.5 106.5q0 61 20.5 108t61.5 73.5t102 26.5q89 0 136 -57t47 -151q0 -58 -19.5 -105t-60 -74t-103.5 -27zM214 16q60 0 93.5 27t47.5 68.5t14 84.5q0 44 -14 86t-47.5 69t-93.5 27q-59 0 -93.5 -27t-48.5 -69t-14 -86
q0 -43 14 -84.5t48.5 -68.5t93.5 -27zM291 363l3 23h15q11 0 17 2.5t8 9t2 18.5h41q0 -19 -8.5 -30.5t-23 -17t-33.5 -5.5h-21zM204 463v6q3 14 16.5 23.5t26 20t12.5 26.5q0 14 -9.5 21.5t-21.5 7.5q-11 0 -22.5 -7.5t-16.5 -24.5l-22 6q6 23 24 35t37 12q21 0 37.5 -11.5
t16.5 -35.5q0 -23 -13 -35t-25.5 -21t-12.5 -23h-27z" />
    <glyph glyph-name="uni1EE0" unicode="&#x1ee0;" horiz-adv-x="597" 
d="M291 -14q-130 0 -198 79.5t-68 214.5q0 89 29.5 154.5t88.5 102t148 36.5q131 0 198.5 -79.5t67.5 -213.5q0 -87 -30 -153.5t-89 -103.5t-147 -37zM291 11q80 0 133 33t80 93.5t27 142.5t-26 142t-79.5 93t-134.5 33q-118 0 -179 -70t-61 -198q0 -81 26 -141.5t79.5 -94
t134.5 -33.5zM369 540l3 23h15q11 0 17 2.5t8 9t2 18.5h41q0 -19 -8.5 -30.5t-23 -17t-33.5 -5.5h-21zM200 629q-1 17 1 30t8 23t16 15t25 5q21 0 33.5 -8t21 -18.5t18 -18.5t24.5 -8q18 0 21.5 14t3.5 40h25q1 -16 -1 -30t-8 -23.5t-16 -15t-25 -5.5q-20 0 -33 8t-22 18.5
t-18.5 18.5t-23.5 8q-17 0 -21.5 -14t-3.5 -39h-25z" />
    <glyph glyph-name="uni1EE1" unicode="&#x1ee1;" horiz-adv-x="442" 
d="M214 -10q-61 0 -102 26.5t-61.5 73t-20.5 106.5q0 61 20.5 108t61.5 73.5t102 26.5q89 0 136 -57t47 -151q0 -58 -19.5 -105t-60 -74t-103.5 -27zM214 16q60 0 93.5 27t47.5 68.5t14 84.5q0 44 -14 86t-47.5 69t-93.5 27q-59 0 -93.5 -27t-48.5 -69t-14 -86
q0 -43 14 -84.5t48.5 -68.5t93.5 -27zM291 363l3 23h15q11 0 17 2.5t8 9t2 18.5h41q0 -19 -8.5 -30.5t-23 -17t-33.5 -5.5h-21zM122 470q-1 17 1 30t8 23t16 15t25 5q21 0 33.5 -8t21 -18.5t18 -18.5t24.5 -8q18 0 21.5 14t3.5 40h25q1 -16 -1 -30t-8 -23.5t-16 -15
t-25 -5.5q-20 0 -33 8t-22 18.5t-18.5 18.5t-23.5 8q-17 0 -21.5 -14t-3.5 -39h-25z" />
    <glyph glyph-name="uni1EE2" unicode="&#x1ee2;" horiz-adv-x="597" 
d="M291 -14q-130 0 -198 79.5t-68 214.5q0 89 29.5 154.5t88.5 102t148 36.5q131 0 198.5 -79.5t67.5 -213.5q0 -87 -30 -153.5t-89 -103.5t-147 -37zM291 11q80 0 133 33t80 93.5t27 142.5t-26 142t-79.5 93t-134.5 33q-118 0 -179 -70t-61 -198q0 -81 26 -141.5t79.5 -94
t134.5 -33.5zM369 540l3 23h15q11 0 17 2.5t8 9t2 18.5h41q0 -19 -8.5 -30.5t-23 -17t-33.5 -5.5h-21zM299 -122q-16 0 -22 8.5t-6 19.5t6 19t22 8q17 0 22 -8t5 -19t-5 -19.5t-22 -8.5z" />
    <glyph glyph-name="uni1EE3" unicode="&#x1ee3;" horiz-adv-x="442" 
d="M214 -10q-61 0 -102 26.5t-61.5 73t-20.5 106.5q0 61 20.5 108t61.5 73.5t102 26.5q89 0 136 -57t47 -151q0 -58 -19.5 -105t-60 -74t-103.5 -27zM214 16q60 0 93.5 27t47.5 68.5t14 84.5q0 44 -14 86t-47.5 69t-93.5 27q-59 0 -93.5 -27t-48.5 -69t-14 -86
q0 -43 14 -84.5t48.5 -68.5t93.5 -27zM291 363l3 23h15q11 0 17 2.5t8 9t2 18.5h41q0 -19 -8.5 -30.5t-23 -17t-33.5 -5.5h-21zM221 -122q-16 0 -22 8.5t-6 19.5t6 19t22 8q17 0 22 -8t5 -19t-5 -19.5t-22 -8.5z" />
    <glyph glyph-name="uni1EE4" unicode="&#x1ee4;" horiz-adv-x="558" 
d="M274 -14q-106 0 -165 66.5t-59 187.5v323h25v-323q0 -55 13.5 -97.5t39 -72t62.5 -44.5t84 -15q67 0 111 26t66.5 77.5t22.5 125.5v323h24v-323q0 -123 -57.5 -188.5t-166.5 -65.5zM279 -122q-16 0 -22 8.5t-6 19.5t6 19t22 8q17 0 22 -8t5 -19t-5 -19.5t-22 -8.5z" />
    <glyph glyph-name="uni1EE5" unicode="&#x1ee5;" horiz-adv-x="430" 
d="M199 -10q-37 0 -64.5 10t-46 28t-29.5 43t-16 55.5t-5 65.5v212h27v-212q0 -50 11 -90t40 -63t83 -23q51 0 82.5 24t47.5 62.5t19 81.5v220h27v-404h-21l-5 103h-2q-6 -19 -18 -38.5t-30.5 -36.5t-43.5 -27.5t-56 -10.5zM215 -122q-16 0 -22 8.5t-6 19.5t6 19t22 8
q17 0 22 -8t5 -19t-5 -19.5t-22 -8.5z" />
    <glyph glyph-name="uni1EE6" unicode="&#x1ee6;" horiz-adv-x="558" 
d="M274 -14q-106 0 -165 66.5t-59 187.5v323h25v-323q0 -55 13.5 -97.5t39 -72t62.5 -44.5t84 -15q67 0 111 26t66.5 77.5t22.5 125.5v323h24v-323q0 -123 -57.5 -188.5t-166.5 -65.5zM262 622v6q3 14 16.5 23.5t26 20t12.5 26.5q0 14 -9.5 21.5t-21.5 7.5q-11 0 -22.5 -7.5
t-16.5 -24.5l-22 6q6 23 24 35t37 12q21 0 37.5 -11.5t16.5 -35.5q0 -23 -13 -35t-25.5 -21t-12.5 -23h-27z" />
    <glyph glyph-name="uni1EE7" unicode="&#x1ee7;" horiz-adv-x="430" 
d="M199 -10q-37 0 -64.5 10t-46 28t-29.5 43t-16 55.5t-5 65.5v212h27v-212q0 -50 11 -90t40 -63t83 -23q51 0 82.5 24t47.5 62.5t19 81.5v220h27v-404h-21l-5 103h-2q-6 -19 -18 -38.5t-30.5 -36.5t-43.5 -27.5t-56 -10.5zM198 463v6q3 14 16.5 23.5t26 20t12.5 26.5
q0 14 -9.5 21.5t-21.5 7.5q-11 0 -22.5 -7.5t-16.5 -24.5l-22 6q6 23 24 35t37 12q21 0 37.5 -11.5t16.5 -35.5q0 -23 -13 -35t-25.5 -21t-12.5 -23h-27z" />
    <glyph glyph-name="uni1EE8" unicode="&#x1ee8;" horiz-adv-x="558" 
d="M274 -14q-106 0 -165 66.5t-59 187.5v323h25v-323q0 -55 13.5 -97.5t39 -72t62.5 -44.5t84 -15q67 0 111 26t66.5 77.5t22.5 125.5v323h24v-323q0 -123 -57.5 -188.5t-166.5 -65.5zM484 540l3 23h15q11 0 17 2.5t8 9t2 18.5h41q0 -19 -8.5 -30.5t-23 -17t-33.5 -5.5h-21z
M286 603h-16v6l57 106h30v-11z" />
    <glyph glyph-name="uni1EE9" unicode="&#x1ee9;" horiz-adv-x="430" 
d="M199 -10q-37 0 -64.5 10t-46 28t-29.5 43t-16 55.5t-5 65.5v212h27v-212q0 -50 11 -90t40 -63t83 -23q51 0 82.5 24t47.5 62.5t19 81.5v220h27v-404h-21l-5 103h-2q-6 -19 -18 -38.5t-30.5 -36.5t-43.5 -27.5t-56 -10.5zM361 381l3 23h15q11 0 17 2.5t8 9t2 18.5h41
q0 -19 -8.5 -30.5t-23 -17t-33.5 -5.5h-21zM222 444h-16v6l57 106h30v-11z" />
    <glyph glyph-name="uni1EEA" unicode="&#x1eea;" horiz-adv-x="558" 
d="M274 -14q-106 0 -165 66.5t-59 187.5v323h25v-323q0 -55 13.5 -97.5t39 -72t62.5 -44.5t84 -15q67 0 111 26t66.5 77.5t22.5 125.5v323h24v-323q0 -123 -57.5 -188.5t-166.5 -65.5zM484 540l3 23h15q11 0 17 2.5t8 9t2 18.5h41q0 -19 -8.5 -30.5t-23 -17t-33.5 -5.5h-21z
M283 603l-71 101v11h30l57 -106v-6h-16z" />
    <glyph glyph-name="uni1EEB" unicode="&#x1eeb;" horiz-adv-x="430" 
d="M199 -10q-37 0 -64.5 10t-46 28t-29.5 43t-16 55.5t-5 65.5v212h27v-212q0 -50 11 -90t40 -63t83 -23q51 0 82.5 24t47.5 62.5t19 81.5v220h27v-404h-21l-5 103h-2q-6 -19 -18 -38.5t-30.5 -36.5t-43.5 -27.5t-56 -10.5zM361 381l3 23h15q11 0 17 2.5t8 9t2 18.5h41
q0 -19 -8.5 -30.5t-23 -17t-33.5 -5.5h-21zM219 444l-71 101v11h30l57 -106v-6h-16z" />
    <glyph glyph-name="uni1EEC" unicode="&#x1eec;" horiz-adv-x="558" 
d="M274 -14q-106 0 -165 66.5t-59 187.5v323h25v-323q0 -55 13.5 -97.5t39 -72t62.5 -44.5t84 -15q67 0 111 26t66.5 77.5t22.5 125.5v323h24v-323q0 -123 -57.5 -188.5t-166.5 -65.5zM484 540l3 23h15q11 0 17 2.5t8 9t2 18.5h41q0 -19 -8.5 -30.5t-23 -17t-33.5 -5.5h-21z
M262 622v6q3 14 16.5 23.5t26 20t12.5 26.5q0 14 -9.5 21.5t-21.5 7.5q-11 0 -22.5 -7.5t-16.5 -24.5l-22 6q6 23 24 35t37 12q21 0 37.5 -11.5t16.5 -35.5q0 -23 -13 -35t-25.5 -21t-12.5 -23h-27z" />
    <glyph glyph-name="uni1EED" unicode="&#x1eed;" horiz-adv-x="430" 
d="M199 -10q-37 0 -64.5 10t-46 28t-29.5 43t-16 55.5t-5 65.5v212h27v-212q0 -50 11 -90t40 -63t83 -23q51 0 82.5 24t47.5 62.5t19 81.5v220h27v-404h-21l-5 103h-2q-6 -19 -18 -38.5t-30.5 -36.5t-43.5 -27.5t-56 -10.5zM361 381l3 23h15q11 0 17 2.5t8 9t2 18.5h41
q0 -19 -8.5 -30.5t-23 -17t-33.5 -5.5h-21zM198 463v6q3 14 16.5 23.5t26 20t12.5 26.5q0 14 -9.5 21.5t-21.5 7.5q-11 0 -22.5 -7.5t-16.5 -24.5l-22 6q6 23 24 35t37 12q21 0 37.5 -11.5t16.5 -35.5q0 -23 -13 -35t-25.5 -21t-12.5 -23h-27z" />
    <glyph glyph-name="uni1EEE" unicode="&#x1eee;" horiz-adv-x="558" 
d="M274 -14q-106 0 -165 66.5t-59 187.5v323h25v-323q0 -55 13.5 -97.5t39 -72t62.5 -44.5t84 -15q67 0 111 26t66.5 77.5t22.5 125.5v323h24v-323q0 -123 -57.5 -188.5t-166.5 -65.5zM484 540l3 23h15q11 0 17 2.5t8 9t2 18.5h41q0 -19 -8.5 -30.5t-23 -17t-33.5 -5.5h-21z
M180 629q-1 17 1 30t8 23t16 15t25 5q21 0 33.5 -8t21 -18.5t18 -18.5t24.5 -8q18 0 21.5 14t3.5 40h25q1 -16 -1 -30t-8 -23.5t-16 -15t-25 -5.5q-20 0 -33 8t-22 18.5t-18.5 18.5t-23.5 8q-17 0 -21.5 -14t-3.5 -39h-25z" />
    <glyph glyph-name="uni1EEF" unicode="&#x1eef;" horiz-adv-x="430" 
d="M199 -10q-37 0 -64.5 10t-46 28t-29.5 43t-16 55.5t-5 65.5v212h27v-212q0 -50 11 -90t40 -63t83 -23q51 0 82.5 24t47.5 62.5t19 81.5v220h27v-404h-21l-5 103h-2q-6 -19 -18 -38.5t-30.5 -36.5t-43.5 -27.5t-56 -10.5zM361 381l3 23h15q11 0 17 2.5t8 9t2 18.5h41
q0 -19 -8.5 -30.5t-23 -17t-33.5 -5.5h-21zM116 470q-1 17 1 30t8 23t16 15t25 5q21 0 33.5 -8t21 -18.5t18 -18.5t24.5 -8q18 0 21.5 14t3.5 40h25q1 -16 -1 -30t-8 -23.5t-16 -15t-25 -5.5q-20 0 -33 8t-22 18.5t-18.5 18.5t-23.5 8q-17 0 -21.5 -14t-3.5 -39h-25z" />
    <glyph glyph-name="uni1EF0" unicode="&#x1ef0;" horiz-adv-x="558" 
d="M274 -14q-106 0 -165 66.5t-59 187.5v323h25v-323q0 -55 13.5 -97.5t39 -72t62.5 -44.5t84 -15q67 0 111 26t66.5 77.5t22.5 125.5v323h24v-323q0 -123 -57.5 -188.5t-166.5 -65.5zM484 540l3 23h15q11 0 17 2.5t8 9t2 18.5h41q0 -19 -8.5 -30.5t-23 -17t-33.5 -5.5h-21z
M279 -122q-16 0 -22 8.5t-6 19.5t6 19t22 8q17 0 22 -8t5 -19t-5 -19.5t-22 -8.5z" />
    <glyph glyph-name="uni1EF1" unicode="&#x1ef1;" horiz-adv-x="430" 
d="M199 -10q-37 0 -64.5 10t-46 28t-29.5 43t-16 55.5t-5 65.5v212h27v-212q0 -50 11 -90t40 -63t83 -23q51 0 82.5 24t47.5 62.5t19 81.5v220h27v-404h-21l-5 103h-2q-6 -19 -18 -38.5t-30.5 -36.5t-43.5 -27.5t-56 -10.5zM361 381l3 23h15q11 0 17 2.5t8 9t2 18.5h41
q0 -19 -8.5 -30.5t-23 -17t-33.5 -5.5h-21zM215 -122q-16 0 -22 8.5t-6 19.5t6 19t22 8q17 0 22 -8t5 -19t-5 -19.5t-22 -8.5z" />
    <glyph glyph-name="Ygrave" unicode="&#x1ef2;" horiz-adv-x="413" 
d="M189 207l-194 356h29l177 -322l175 322h28l-194 -356h-21zM186 0v220h27v-220h-27zM211 603l-71 101v11h30l57 -106v-6h-16z" />
    <glyph glyph-name="ygrave" unicode="&#x1ef3;" horiz-adv-x="374" 
d="M-5 -174v25h49q13 0 21.5 5.5t17 19.5t20.5 39l58 125l-159 364h29l145 -332l153 332h30l-233 -497q-12 -25 -21.5 -41t-18.5 -25t-20 -12t-25 -3h-46zM191 444l-71 101v11h30l57 -106v-6h-16z" />
    <glyph glyph-name="uni1EF4" unicode="&#x1ef4;" horiz-adv-x="413" 
d="M189 207l-194 356h29l177 -322l175 322h28l-194 -356h-21zM186 0v220h27v-220h-27zM200 -122q-16 0 -22 8.5t-6 19.5t6 19t22 8q17 0 22 -8t5 -19t-5 -19.5t-22 -8.5z" />
    <glyph glyph-name="uni1EF5" unicode="&#x1ef5;" horiz-adv-x="374" 
d="M-5 -174v25h49q13 0 21.5 5.5t17 19.5t20.5 39l58 125l-159 364h29l145 -332l153 332h30l-233 -497q-12 -25 -21.5 -41t-18.5 -25t-20 -12t-25 -3h-46zM275 -122q-16 0 -22 8.5t-6 19.5t6 19t22 8q17 0 22 -8t5 -19t-5 -19.5t-22 -8.5z" />
    <glyph glyph-name="uni1EF6" unicode="&#x1ef6;" horiz-adv-x="413" 
d="M189 207l-194 356h29l177 -322l175 322h28l-194 -356h-21zM186 0v220h27v-220h-27zM190 622v6q3 14 16.5 23.5t26 20t12.5 26.5q0 14 -9.5 21.5t-21.5 7.5q-11 0 -22.5 -7.5t-16.5 -24.5l-22 6q6 23 24 35t37 12q21 0 37.5 -11.5t16.5 -35.5q0 -23 -13 -35t-25.5 -21
t-12.5 -23h-27z" />
    <glyph glyph-name="uni1EF7" unicode="&#x1ef7;" horiz-adv-x="374" 
d="M-5 -174v25h49q13 0 21.5 5.5t17 19.5t20.5 39l58 125l-159 364h29l145 -332l153 332h30l-233 -497q-12 -25 -21.5 -41t-18.5 -25t-20 -12t-25 -3h-46zM170 463v6q3 14 16.5 23.5t26 20t12.5 26.5q0 14 -9.5 21.5t-21.5 7.5q-11 0 -22.5 -7.5t-16.5 -24.5l-22 6
q6 23 24 35t37 12q21 0 37.5 -11.5t16.5 -35.5q0 -23 -13 -35t-25.5 -21t-12.5 -23h-27z" />
    <glyph glyph-name="uni1EF8" unicode="&#x1ef8;" horiz-adv-x="413" 
d="M189 207l-194 356h29l177 -322l175 322h28l-194 -356h-21zM186 0v220h27v-220h-27zM108 629q-1 17 1 30t8 23t16 15t25 5q21 0 33.5 -8t21 -18.5t18 -18.5t24.5 -8q18 0 21.5 14t3.5 40h25q1 -16 -1 -30t-8 -23.5t-16 -15t-25 -5.5q-20 0 -33 8t-22 18.5t-18.5 18.5
t-23.5 8q-17 0 -21.5 -14t-3.5 -39h-25z" />
    <glyph glyph-name="uni1EF9" unicode="&#x1ef9;" horiz-adv-x="374" 
d="M-5 -174v25h49q13 0 21.5 5.5t17 19.5t20.5 39l58 125l-159 364h29l145 -332l153 332h30l-233 -497q-12 -25 -21.5 -41t-18.5 -25t-20 -12t-25 -3h-46zM88 470q-1 17 1 30t8 23t16 15t25 5q21 0 33.5 -8t21 -18.5t18 -18.5t24.5 -8q18 0 21.5 14t3.5 40h25q1 -16 -1 -30
t-8 -23.5t-16 -15t-25 -5.5q-20 0 -33 8t-22 18.5t-18.5 18.5t-23.5 8q-17 0 -21.5 -14t-3.5 -39h-25z" />
    <glyph glyph-name="endash" unicode="&#x2013;" horiz-adv-x="397" 
d="M40 211v26h302v-26h-302z" />
    <glyph glyph-name="emdash" unicode="&#x2014;" horiz-adv-x="497" 
d="M40 211v26h402v-26h-402z" />
    <glyph glyph-name="quoteleft" unicode="&#x2018;" horiz-adv-x="163" 
d="M46 432q-16 0 -21 9t-5 21t5 20.5t21 8.5t21 -8.5t5 -20.5t-5 -21t-21 -9zM20 462l0.5 10t4.5 25.5t12.5 30.5t24.5 25t41 10v-29q-24 0 -37.5 -7.5t-20 -18t-8 -21t-0.5 -18l1 -7.5h-18z" />
    <glyph glyph-name="quoteright" unicode="&#x2019;" horiz-adv-x="128" 
d="M15 432v29q24 0 37.5 7.5t20 18t8 21t0.5 18l-1 7.5h18l-0.5 -10t-4.5 -25t-12.5 -30.5t-24.5 -25.5t-41 -10zM72 504q-16 0 -21 8.5t-5 20.5t5 21t21 9t21 -9t5 -21t-5 -20.5t-21 -8.5z" />
    <glyph glyph-name="quotesinglbase" unicode="&#x201a;" horiz-adv-x="183" 
d="M45 -72v29q24 0 37.5 7.5t20 18t8 21t0.5 18l-1 7.5h18l-0.5 -10t-4.5 -25t-12.5 -30.5t-24.5 -25.5t-41 -10zM102 0q-16 0 -21 8.5t-5 20.5t5 21t21 9t21 -9t5 -21t-5 -20.5t-21 -8.5z" />
    <glyph glyph-name="quotedblleft" unicode="&#x201c;" horiz-adv-x="255" 
d="M112 462l0.5 10t4.5 25.5t12.5 30.5t24.5 25t41 10v-29q-24 0 -37.5 -7.5t-20 -18t-8 -21t-0.5 -18l1 -7.5h-18zM46 432q-16 0 -21 9t-5 21t5 20.5t21 8.5t21 -8.5t5 -20.5t-5 -21t-21 -9zM20 462l0.5 10t4.5 25.5t12.5 30.5t24.5 25t41 10v-29q-24 0 -37.5 -7.5t-20 -18
t-8 -21t-0.5 -18l1 -7.5h-18zM138 432q-16 0 -21 9t-5 21t5 20.5t21 8.5t21 -8.5t5 -20.5t-5 -21t-21 -9z" />
    <glyph glyph-name="quotedblright" unicode="&#x201d;" horiz-adv-x="255" 
d="M112 432v29q24 0 37.5 7.5t20 18t8 21t0.5 18l-1 7.5h18l-0.5 -10t-4.5 -25t-12.5 -30.5t-24.5 -25.5t-41 -10zM20 432v29q24 0 37.5 7.5t20 18t8 21t0.5 18l-1 7.5h18l-0.5 -10t-4.5 -25t-12.5 -30.5t-24.5 -25.5t-41 -10zM77 504q-16 0 -21 8.5t-5 20.5t5 21t21 9
t21 -9t5 -21t-5 -20.5t-21 -8.5zM169 504q-16 0 -21 8.5t-5 20.5t5 21t21 9t21 -9t5 -21t-5 -20.5t-21 -8.5z" />
    <glyph glyph-name="quotedblbase" unicode="&#x201e;" horiz-adv-x="275" 
d="M45 -72v29q24 0 37.5 7.5t20 18t8 21t0.5 18l-1 7.5h18l-0.5 -10t-4.5 -25t-12.5 -30.5t-24.5 -25.5t-41 -10zM102 0q-16 0 -21 8.5t-5 20.5t5 21t21 9t21 -9t5 -21t-5 -20.5t-21 -8.5zM137 -72v29q24 0 37.5 7.5t20 18t8 21t0.5 18l-1 7.5h18l-0.5 -10t-4.5 -25
t-12.5 -30.5t-24.5 -25.5t-41 -10zM194 0q-16 0 -21 8.5t-5 20.5t5 21t21 9t21 -9t5 -21t-5 -20.5t-21 -8.5z" />
    <glyph glyph-name="bullet" unicode="&#x2022;" horiz-adv-x="187" 
d="M84 201q-23 0 -31 11.5t-8 27.5q0 15 8 26.5t31 11.5t30.5 -11.5t7.5 -26.5q0 -16 -7.5 -27.5t-30.5 -11.5z" />
    <glyph glyph-name="ellipsis" unicode="&#x2026;" horiz-adv-x="373" 
d="M69 0q-14 0 -19 8.5t-5 20.5t5 21t19 9t19 -9t5 -21t-5 -20.5t-19 -8.5zM181 0q-14 0 -19 8.5t-5 20.5t5 21t19 9t19 -9t5 -21t-5 -20.5t-19 -8.5zM294 0q-14 0 -19 8.5t-5 20.5t5 21t19 9t19 -9t5 -21t-5 -20.5t-19 -8.5z" />
    <glyph glyph-name="perthousand" unicode="&#x2030;" horiz-adv-x="760" 
d="M78 0l-20 15l209 277l189 270l20 -14l-197 -264zM420 -10q-47 0 -69 33.5t-22 90.5q0 56 21.5 90t69.5 34t69.5 -34t21.5 -90q0 -55 -21.5 -89.5t-69.5 -34.5zM420 9q38 0 53.5 29.5t15.5 74.5q0 47 -15.5 76t-53.5 29q-37 0 -53 -28t-16 -77q0 -45 16 -74.5t53 -29.5z
M121 325q-47 0 -69 33.5t-22 90.5q0 56 21.5 90t69.5 34t69.5 -34t21.5 -90q0 -55 -21.5 -89.5t-69.5 -34.5zM121 344q38 0 53.5 29.5t15.5 74.5q0 47 -15.5 76t-53.5 29q-37 0 -53 -28t-16 -77q0 -45 16 -74.5t53 -29.5zM639 -10q-47 0 -69 33.5t-22 90.5q0 56 21.5 90
t69.5 34t69.5 -34t21.5 -90q0 -55 -21.5 -89.5t-69.5 -34.5zM639 9q38 0 53.5 29.5t15.5 74.5q0 47 -15.5 76t-53.5 29q-37 0 -53 -28t-16 -77q0 -45 16 -74.5t53 -29.5z" />
    <glyph glyph-name="guilsinglleft" unicode="&#x2039;" horiz-adv-x="376" 
d="M336 363v-30l-258 -110l258 -110v-32l-296 142z" />
    <glyph glyph-name="guilsinglright" unicode="&#x203a;" horiz-adv-x="381" 
d="M40 363l296 -140l-296 -142v32l258 110l-258 110v30z" />
    <glyph glyph-name="fraction" unicode="&#x2044;" horiz-adv-x="178" 
d="M-100 0l-20 15l209 277l189 270l20 -14l-197 -264z" />
    <glyph glyph-name="uni2074" unicode="&#x2074;" horiz-adv-x="244" 
d="M15 463v25q32 15 57.5 47t41.5 71t16 75h30q0 -55 -33 -107.5t-81 -85.5h183v-25h-214zM162 404v138h28v-138h-28z" />
    <glyph glyph-name="Euro" unicode="&#x20ac;" horiz-adv-x="602" 
d="M326 -10q-70 0 -125 33t-87 98t-32 161q0 98 31.5 162.5t87 96.5t128.5 32q57 0 103 -22.5t77.5 -67.5t43.5 -113h-28q-15 86 -66.5 132.5t-129.5 46.5q-66 0 -115.5 -30.5t-77 -90t-27.5 -146.5q0 -132 59 -200t158 -68q86 0 137.5 47t64.5 129h29q-11 -66 -42 -110.5
t-78.5 -67t-110.5 -22.5zM339 233h-309v24h324zM30 309v24h354l-15 -24h-339z" />
    <glyph glyph-name="trademark" unicode="&#x2122;" horiz-adv-x="440" 
d="M186 354v209h45l65 -196l64 196h45v-209h-26l2 196l-66 -196h-40l-63 196v-196h-26zM57 354v187h-72v22h169v-22h-72v-187h-25z" />
    <glyph glyph-name="oneeighth" unicode="&#x215b;" horiz-adv-x="579" 
d="M75 299v224q-7 -19 -20 -29t-24.5 -13.5t-15.5 -3.5v29q4 0 19 4t29 16.5t14 37.5h24v-265h-26zM31 287v25h110v-25h-110zM56 0l-20 15l209 277l189 270l20 -14l-197 -264zM456 -10q-46 0 -76.5 21t-30.5 58q0 26 17.5 46t46.5 26q-20 5 -30.5 16t-14 24t-3.5 22
q0 32 25.5 53t65.5 21q41 0 66.5 -21.5t25.5 -52.5q0 -9 -3.5 -22t-14 -24t-31.5 -16q29 -6 47 -25.5t18 -46.5q0 -39 -31 -59t-77 -20zM456 13q38 0 59.5 17.5t21.5 42.5q0 29 -21.5 45t-59.5 16q-37 0 -58.5 -16t-21.5 -45q0 -25 21.5 -42.5t58.5 -17.5zM456 149
q30 0 48.5 12t18.5 37q0 26 -19 41t-48 15q-30 0 -48.5 -15.5t-18.5 -40.5t19.5 -37t47.5 -12z" />
    <glyph glyph-name="threeeighths" unicode="&#x215c;" horiz-adv-x="654" 
d="M118 277q-40 0 -71 22.5t-32 68.5l26 3q2 -36 25.5 -53t51.5 -17q29 0 51 16.5t22 42.5q0 23 -11 35t-25 16.5t-24 4.5h-38v16h39q24 0 38 15t14 35q0 28 -18.5 43.5t-49.5 15.5q-25 0 -40 -10.5t-22 -24.5t-8 -25l-25 3q0 8 5 21t16 26.5t29 23t45 9.5q42 0 67.5 -20.5
t25.5 -56.5q0 -23 -12.5 -40t-32.5 -23q21 -5 36.5 -22.5t15.5 -45.5q0 -35 -28 -57t-70 -22zM131 0l-20 15l209 277l189 270l20 -14l-197 -264zM531 -10q-46 0 -76.5 21t-30.5 58q0 26 17.5 46t46.5 26q-20 5 -30.5 16t-14 24t-3.5 22q0 32 25.5 53t65.5 21
q41 0 66.5 -21.5t25.5 -52.5q0 -9 -3.5 -22t-14 -24t-31.5 -16q29 -6 47 -25.5t18 -46.5q0 -39 -31 -59t-77 -20zM531 13q38 0 59.5 17.5t21.5 42.5q0 29 -21.5 45t-59.5 16q-37 0 -58.5 -16t-21.5 -45q0 -25 21.5 -42.5t58.5 -17.5zM531 149q30 0 48.5 12t18.5 37
q0 26 -19 41t-48 15q-30 0 -48.5 -15.5t-18.5 -40.5t19.5 -37t47.5 -12z" />
    <glyph glyph-name="fiveeighths" unicode="&#x215d;" horiz-adv-x="657" 
d="M115 277q-27 0 -47.5 9t-33.5 25t-19 37l28 3q1 -2 6.5 -14.5t21 -24t45.5 -11.5q37 0 57 22.5t20 47.5q0 26 -18 48t-56 22q-25 0 -40 -8t-21.5 -15.5t-6.5 -8.5l-27 6l14 139h168v-25h-147l-10 -99l7.5 8t24 16t44.5 8q50 0 72 -27.5t22 -62.5q0 -37 -27.5 -66
t-76.5 -29zM134 0l-20 15l209 277l189 270l20 -14l-197 -264zM534 -10q-46 0 -76.5 21t-30.5 58q0 26 17.5 46t46.5 26q-20 5 -30.5 16t-14 24t-3.5 22q0 32 25.5 53t65.5 21q41 0 66.5 -21.5t25.5 -52.5q0 -9 -3.5 -22t-14 -24t-31.5 -16q29 -6 47 -25.5t18 -46.5
q0 -39 -31 -59t-77 -20zM534 13q38 0 59.5 17.5t21.5 42.5q0 29 -21.5 45t-59.5 16q-37 0 -58.5 -16t-21.5 -45q0 -25 21.5 -42.5t58.5 -17.5zM534 149q30 0 48.5 12t18.5 37q0 26 -19 41t-48 15q-30 0 -48.5 -15.5t-18.5 -40.5t19.5 -37t47.5 -12z" />
    <glyph glyph-name="seveneighths" unicode="&#x215e;" horiz-adv-x="646" 
d="M56 287q0 85 34 141.5t89 100.5h-164v25h193v-24q-15 -12 -35.5 -30t-40.5 -46t-33.5 -69t-13.5 -98h-29zM123 0l-20 15l209 277l189 270l20 -14l-197 -264zM523 -10q-46 0 -76.5 21t-30.5 58q0 26 17.5 46t46.5 26q-20 5 -30.5 16t-14 24t-3.5 22q0 32 25.5 53t65.5 21
q41 0 66.5 -21.5t25.5 -52.5q0 -9 -3.5 -22t-14 -24t-31.5 -16q29 -6 47 -25.5t18 -46.5q0 -39 -31 -59t-77 -20zM523 13q38 0 59.5 17.5t21.5 42.5q0 29 -21.5 45t-59.5 16q-37 0 -58.5 -16t-21.5 -45q0 -25 21.5 -42.5t58.5 -17.5zM523 149q30 0 48.5 12t18.5 37
q0 26 -19 41t-48 15q-30 0 -48.5 -15.5t-18.5 -40.5t19.5 -37t47.5 -12z" />
    <glyph glyph-name="arrowleft" unicode="&#x2190;" horiz-adv-x="388" 
d="M35 212v26q42 0 65 14t33.5 33t13 34t2.5 16h25q0 -1 -1.5 -13.5t-8 -30.5t-21.5 -36.5t-41 -30.5t-67 -12zM149 115q0 2 -2.5 16.5t-13 33.5t-33.5 33t-65 14v26q41 0 67 -12.5t41 -30.5t21.5 -36.5t8 -31l1.5 -12.5h-25zM35 212v26h318v-26h-318z" />
    <glyph glyph-name="arrowup" unicode="&#x2191;" horiz-adv-x="290" 
d="M255 308l-12.5 1.5t-31 8t-36.5 21.5t-30.5 41t-12.5 67h26q0 -42 14 -65t33 -33.5t34 -13t16 -2.5v-25zM132 129v318h26v-318h-26zM35 308v25q2 0 16.5 2.5t33.5 13t33 33.5t14 65h26q0 -41 -12 -67t-30.5 -41t-36.5 -21.5t-30.5 -8t-13.5 -1.5z" />
    <glyph glyph-name="arrowright" unicode="&#x2192;" horiz-adv-x="388" 
d="M353 212q-41 0 -67 12t-41 30.5t-21.5 36.5t-8 30.5t-1.5 13.5h25q0 -1 2.5 -16t13 -34t33.5 -33t65 -14v-26zM35 212v26h318v-26h-318zM214 115l1.5 12.5t8 31t21.5 36.5t41 30.5t67 12.5v-26q-42 0 -65 -14t-33.5 -33t-13 -33.5t-2.5 -16.5h-25z" />
    <glyph glyph-name="arrowdown" unicode="&#x2193;" horiz-adv-x="290" 
d="M132 129q0 41 12.5 67t30.5 41t36.5 21.5t31 8l12.5 1.5v-25q-1 0 -16 -2.5t-34 -13t-33 -33.5t-14 -65h-26zM132 129q0 42 -14 65t-33 33.5t-33.5 13t-16.5 2.5v25q1 0 13.5 -1.5t30.5 -8t36.5 -21.5t30.5 -41t12 -67h-26zM132 129v318h26v-318h-26z" />
    <glyph glyph-name="arrowboth" unicode="&#x2194;" horiz-adv-x="525" 
d="M490 212q-41 0 -67 12t-41 30.5t-21.5 36.5t-8 30.5t-1.5 13.5h25q0 -1 2.5 -16t13 -34t33.5 -33t65 -14v-26zM149 115q0 2 -2.5 16.5t-13 33.5t-33.5 33t-65 14v26q41 0 67 -12.5t41 -30.5t21.5 -36.5t8 -31l1.5 -12.5h-25zM35 212v26q42 0 65 14t33.5 33t13 34t2.5 16
h25q0 -1 -1.5 -13.5t-8 -30.5t-21.5 -36.5t-41 -30.5t-67 -12zM35 212v26h318v-26h-318zM172 212v26h318v-26h-318zM351 115l1.5 12.5t8 31t21.5 36.5t41 30.5t67 12.5v-26q-42 0 -65 -14t-33.5 -33t-13 -33.5t-2.5 -16.5h-25z" />
    <glyph glyph-name="arrowupdn" unicode="&#x2195;" horiz-adv-x="290" 
d="M255 308l-12.5 1.5t-31 8t-36.5 21.5t-30.5 41t-12.5 67h26q0 -42 14 -65t33 -33.5t34 -13t16 -2.5v-25zM132 -8q0 42 -14 65t-33 33.5t-33.5 13t-16.5 2.5v25q1 0 13.5 -1.5t30.5 -8t36.5 -21.5t30.5 -41t12 -67h-26zM132 -8q0 41 12.5 67t30.5 41t36.5 21.5t31 8
l12.5 1.5v-25q-1 0 -16 -2.5t-34 -13t-33 -33.5t-14 -65h-26zM132 -8v318h26v-318h-26zM132 129v318h26v-318h-26zM35 308v25q2 0 16.5 2.5t33.5 13t33 33.5t14 65h26q0 -41 -12 -67t-30.5 -41t-36.5 -21.5t-30.5 -8t-13.5 -1.5z" />
    <glyph glyph-name="uni2196" unicode="&#x2196;" horiz-adv-x="323" 
d="M224 179l-224 225l18 18l225 -224zM29 237l-17 18q1 1 9.5 13.5t14.5 33t-0.5 47t-35.5 55.5l18 18q29 -29 39 -56t7.5 -50.5t-11 -41t-16.5 -27.5zM186 392q-1 -1 -11 -8.5t-27.5 -16t-41 -10.5t-50.5 8t-56 39l18 18q29 -29 55.5 -35.5t47 -0.5t33 14.5t13.5 9.5z" />
    <glyph glyph-name="uni2197" unicode="&#x2197;" horiz-adv-x="323" 
d="M19 179l-19 19l225 224l18 -18zM214 237l-8 10t-16.5 27.5t-11 41t7.5 50.5t39 56l18 -18q-29 -29 -35.5 -55.5t-0.5 -47t14.5 -33t9.5 -13.5zM57 392l19 18q1 -1 13.5 -9.5t33 -14.5t47 0.5t55.5 35.5l18 -18q-29 -29 -56 -39t-50.5 -8t-41 10.5t-27.5 16t-11 8.5z" />
    <glyph glyph-name="uni2198" unicode="&#x2198;" horiz-adv-x="323" 
d="M270 155l-235 235l18 18l235 -235zM270 155q-30 29 -56.5 35.5t-47 1t-33 -14.5t-13.5 -10l-17 18l10 8t27.5 16t41 10.5t50.5 -7.5t56 -39zM270 155q-29 29 -39 56t-7.5 50.5t11 41t16 27.5l7.5 10l18 -18q-1 -1 -10 -13t-14.5 -32.5t1 -47t35.5 -56.5z" />
    <glyph glyph-name="uni2199" unicode="&#x2199;" horiz-adv-x="323" 
d="M53 155l-18 18l235 235l18 -18zM53 155l-18 18q29 30 35.5 56.5t1 47t-14.5 32.5t-10 13l18 18l7.5 -10t16 -27.5t11 -41t-7.5 -50.5t-39 -56zM53 155l-18 18q29 29 56 39t50.5 7.5t41 -10.5t27.5 -16l10 -8l-17 -18q-1 1 -13.5 10t-33 14.5t-47 -1t-56.5 -35.5z" />
    <glyph glyph-name="uni21A9" unicode="&#x21a9;" horiz-adv-x="468" 
d="M35 212v26q42 0 65 14t33.5 33t13 34t2.5 16h25q0 -1 -1.5 -13.5t-8 -30.5t-21.5 -36.5t-41 -30.5t-67 -12zM433 212h-398v26h398v-26zM174 115h-25q0 2 -2.5 16.5t-13 33.5t-33.5 33t-65 14v26q41 0 67 -12.5t41 -30.5t21.5 -36.5t8 -31zM405 404h28v-192h-28v192z" />
    <glyph glyph-name="carriagereturn" unicode="&#x21b5;" horiz-adv-x="468" 
d="M35 212v26q42 0 65 14t33.5 33t13 34t2.5 16h25q0 -1 -1.5 -13.5t-8 -30.5t-21.5 -36.5t-41 -30.5t-67 -12zM433 212h-398v26h398v-26zM174 115h-25q0 2 -2.5 16.5t-13 33.5t-33.5 33t-65 14v26q41 0 67 -12.5t41 -30.5t21.5 -36.5t8 -31zM405 404h28v-192h-28v192z" />
    <glyph glyph-name="minus" unicode="&#x2212;" horiz-adv-x="350" 
d="M64 211v26h222v-26h-222z" />
    <glyph glyph-name="uni2215" unicode="&#x2215;" horiz-adv-x="319" 
d="M25 0l254 563h30l-254 -563h-30z" />
    <glyph glyph-name="notequal" unicode="&#x2260;" horiz-adv-x="350" 
d="M80 52l139 310h30l-139 -310h-30zM44 141v24h262v-24h-262zM44 249v24h262v-24h-262z" />
    <glyph glyph-name="uni240D" unicode="&#x240d;" horiz-adv-x="571" 
d="M168 180q-55 0 -91.5 35.5t-36.5 105.5t36 104.5t94 34.5q44 0 76 -23.5t41 -73.5h-13q-8 41 -35 63.5t-69 22.5q-53 0 -85.5 -33t-32.5 -95q0 -64 32 -96.5t84 -32.5q46 0 73.5 22.5t34.5 62.5h14q-9 -48 -41 -72.5t-81 -24.5zM339 184v268h78q50 0 76.5 -15t26.5 -59
q0 -25 -15.5 -46.5t-48.5 -21.5q28 0 39 -13.5t12.5 -33t1 -38t3 -28.5t19.5 -5v-11l-8.5 -0.5t-17 5.5t-8.5 27q0 39 -4 58t-17.5 25.5t-43 6.5h-80.5v-119h-13zM352 316h77q40 0 59.5 14t19.5 48q0 39 -23.5 50t-67.5 11h-65v-123z" />
    <glyph glyph-name="I.ss01" horiz-adv-x="501" 
d="M240 -75q-1 125 -5.5 211.5t-15.5 141t-33.5 84t-59 40.5t-91.5 11v13q75 0 117 16.5t60.5 49t23 80.5t4.5 112h14q0 -64 4.5 -112t23.5 -80.5t62.5 -49t121.5 -16.5v-13q-57 0 -95.5 -11t-62 -40.5t-35.5 -84t-16 -141t-5 -212.5zM247 228h1q1 46 2.5 81.5t8 59.5
t22.5 36.5t46 12.5q-39 0 -55.5 9t-20 28.5t-3.5 50.5h-1q0 -31 -3 -50.5t-19.5 -28.5t-55.5 -9q31 0 47 -12.5t22.5 -36.5t7.5 -59t1 -82z" />
    <glyph glyph-name="N_o.dlig" horiz-adv-x="862" 
d="M693 313q-55 0 -82 36.5t-27 92.5q0 58 27 94.5t82 36.5q53 0 80.5 -36t27.5 -95q0 -55 -26 -92t-82 -37zM582 222v26h220v-26h-220zM693 337q32 0 49.5 16t24.5 40.5t7 49.5q0 26 -7 50t-24.5 40t-49.5 16q-31 0 -49 -16t-25.5 -40t-7.5 -50q0 -25 7.5 -49.5t25.5 -40.5
t49 -16zM472 563h25v-563h-47l-368 550h-2v-550h-25v563h45l370 -550h2v550z" />
    <glyph glyph-name="i.loclTRK" horiz-adv-x="138" 
d="M55 0v404h26v-404h-26zM68 473q-16 0 -22 8.5t-6 19.5t6 19t22 8q17 0 22 -8t5 -19t-5 -19.5t-22 -8.5z" />
    <glyph glyph-name="a.ss01" horiz-adv-x="448" 
d="M381 -9q-9 0 -18.5 4t-17 12t-12 23t-4.5 37v215q0 32 -17.5 53.5t-45 33t-59.5 11.5q-29 0 -57.5 -10.5t-48 -31t-23.5 -52.5h-27q7 40 31 66t58 39t69 13q37 0 70.5 -13.5t55 -40.5t21.5 -68v-215q0 -28 9 -39.5t21 -11.5t22 4t12 6l8 -22l-9 -4.5t-17 -6t-21 -2.5z
M145 -9q-51 0 -82 28t-31 74q0 36 17 58.5t45 36.5t61.5 22.5t65.5 15.5q45 10 68.5 17t31.5 16t8 23l6 -120q-24 -80 -74.5 -125.5t-115.5 -45.5zM147 18q47 0 88 29.5t66 78.5t25 108q-13 -10 -39.5 -16.5t-59.5 -14.5q-45 -10 -83.5 -21t-61.5 -31t-23 -57
q0 -34 22.5 -55t65.5 -21z" />
    <glyph glyph-name="aacute.ss01" horiz-adv-x="448" 
d="M381 -9q-9 0 -18.5 4t-17 12t-12 23t-4.5 37v215q0 32 -17.5 53.5t-45 33t-59.5 11.5q-29 0 -57.5 -10.5t-48 -31t-23.5 -52.5h-27q7 40 31 66t58 39t69 13q37 0 70.5 -13.5t55 -40.5t21.5 -68v-215q0 -28 9 -39.5t21 -11.5t22 4t12 6l8 -22l-9 -4.5t-17 -6t-21 -2.5z
M145 -9q-51 0 -82 28t-31 74q0 36 17 58.5t45 36.5t61.5 22.5t65.5 15.5q45 10 68.5 17t31.5 16t8 23l6 -120q-24 -80 -74.5 -125.5t-115.5 -45.5zM147 18q47 0 88 29.5t66 78.5t25 108q-13 -10 -39.5 -16.5t-59.5 -14.5q-45 -10 -83.5 -21t-61.5 -31t-23 -57
q0 -34 22.5 -55t65.5 -21zM218 444h-16v6l57 106h30v-11z" />
    <glyph glyph-name="abreve.ss01" horiz-adv-x="448" 
d="M381 -9q-9 0 -18.5 4t-17 12t-12 23t-4.5 37v215q0 32 -17.5 53.5t-45 33t-59.5 11.5q-29 0 -57.5 -10.5t-48 -31t-23.5 -52.5h-27q7 40 31 66t58 39t69 13q37 0 70.5 -13.5t55 -40.5t21.5 -68v-215q0 -28 9 -39.5t21 -11.5t22 4t12 6l8 -22l-9 -4.5t-17 -6t-21 -2.5z
M145 -9q-51 0 -82 28t-31 74q0 36 17 58.5t45 36.5t61.5 22.5t65.5 15.5q45 10 68.5 17t31.5 16t8 23l6 -120q-24 -80 -74.5 -125.5t-115.5 -45.5zM147 18q47 0 88 29.5t66 78.5t25 108q-13 -10 -39.5 -16.5t-59.5 -14.5q-45 -10 -83.5 -21t-61.5 -31t-23 -57
q0 -34 22.5 -55t65.5 -21zM212 459q-47 0 -75 21t-28 55h22q0 -34 24 -42.5t56 -8.5t55.5 8.5t23.5 42.5h23q0 -34 -27 -55t-74 -21z" />
    <glyph glyph-name="uni1EAF.ss01" horiz-adv-x="448" 
d="M381 -9q-9 0 -18.5 4t-17 12t-12 23t-4.5 37v215q0 32 -17.5 53.5t-45 33t-59.5 11.5q-29 0 -57.5 -10.5t-48 -31t-23.5 -52.5h-27q7 40 31 66t58 39t69 13q37 0 70.5 -13.5t55 -40.5t21.5 -68v-215q0 -28 9 -39.5t21 -11.5t22 4t12 6l8 -22l-9 -4.5t-17 -6t-21 -2.5z
M145 -9q-51 0 -82 28t-31 74q0 36 17 58.5t45 36.5t61.5 22.5t65.5 15.5q45 10 68.5 17t31.5 16t8 23l6 -120q-24 -80 -74.5 -125.5t-115.5 -45.5zM147 18q47 0 88 29.5t66 78.5t25 108q-13 -10 -39.5 -16.5t-59.5 -14.5q-45 -10 -83.5 -21t-61.5 -31t-23 -57
q0 -34 22.5 -55t65.5 -21zM212 459q-47 0 -75 21t-28 55h22q0 -34 24 -42.5t56 -8.5t55.5 8.5t23.5 42.5h23q0 -34 -27 -55t-74 -21zM218 547h-16v6l57 106h30v-11z" />
    <glyph glyph-name="uni1EB7.ss01" horiz-adv-x="448" 
d="M381 -9q-9 0 -18.5 4t-17 12t-12 23t-4.5 37v215q0 32 -17.5 53.5t-45 33t-59.5 11.5q-29 0 -57.5 -10.5t-48 -31t-23.5 -52.5h-27q7 40 31 66t58 39t69 13q37 0 70.5 -13.5t55 -40.5t21.5 -68v-215q0 -28 9 -39.5t21 -11.5t22 4t12 6l8 -22l-9 -4.5t-17 -6t-21 -2.5z
M145 -9q-51 0 -82 28t-31 74q0 36 17 58.5t45 36.5t61.5 22.5t65.5 15.5q45 10 68.5 17t31.5 16t8 23l6 -120q-24 -80 -74.5 -125.5t-115.5 -45.5zM147 18q47 0 88 29.5t66 78.5t25 108q-13 -10 -39.5 -16.5t-59.5 -14.5q-45 -10 -83.5 -21t-61.5 -31t-23 -57
q0 -34 22.5 -55t65.5 -21zM224 -122q-16 0 -22 8.5t-6 19.5t6 19t22 8q17 0 22 -8t5 -19t-5 -19.5t-22 -8.5zM212 459q-47 0 -75 21t-28 55h22q0 -34 24 -42.5t56 -8.5t55.5 8.5t23.5 42.5h23q0 -34 -27 -55t-74 -21z" />
    <glyph glyph-name="uni1EB1.ss01" horiz-adv-x="448" 
d="M381 -9q-9 0 -18.5 4t-17 12t-12 23t-4.5 37v215q0 32 -17.5 53.5t-45 33t-59.5 11.5q-29 0 -57.5 -10.5t-48 -31t-23.5 -52.5h-27q7 40 31 66t58 39t69 13q37 0 70.5 -13.5t55 -40.5t21.5 -68v-215q0 -28 9 -39.5t21 -11.5t22 4t12 6l8 -22l-9 -4.5t-17 -6t-21 -2.5z
M145 -9q-51 0 -82 28t-31 74q0 36 17 58.5t45 36.5t61.5 22.5t65.5 15.5q45 10 68.5 17t31.5 16t8 23l6 -120q-24 -80 -74.5 -125.5t-115.5 -45.5zM147 18q47 0 88 29.5t66 78.5t25 108q-13 -10 -39.5 -16.5t-59.5 -14.5q-45 -10 -83.5 -21t-61.5 -31t-23 -57
q0 -34 22.5 -55t65.5 -21zM212 459q-47 0 -75 21t-28 55h22q0 -34 24 -42.5t56 -8.5t55.5 8.5t23.5 42.5h23q0 -34 -27 -55t-74 -21zM215 547l-71 101v11h30l57 -106v-6h-16z" />
    <glyph glyph-name="uni1EB3.ss01" horiz-adv-x="448" 
d="M381 -9q-9 0 -18.5 4t-17 12t-12 23t-4.5 37v215q0 32 -17.5 53.5t-45 33t-59.5 11.5q-29 0 -57.5 -10.5t-48 -31t-23.5 -52.5h-27q7 40 31 66t58 39t69 13q37 0 70.5 -13.5t55 -40.5t21.5 -68v-215q0 -28 9 -39.5t21 -11.5t22 4t12 6l8 -22l-9 -4.5t-17 -6t-21 -2.5z
M145 -9q-51 0 -82 28t-31 74q0 36 17 58.5t45 36.5t61.5 22.5t65.5 15.5q45 10 68.5 17t31.5 16t8 23l6 -120q-24 -80 -74.5 -125.5t-115.5 -45.5zM147 18q47 0 88 29.5t66 78.5t25 108q-13 -10 -39.5 -16.5t-59.5 -14.5q-45 -10 -83.5 -21t-61.5 -31t-23 -57
q0 -34 22.5 -55t65.5 -21zM212 459q-47 0 -75 21t-28 55h22q0 -34 24 -42.5t56 -8.5t55.5 8.5t23.5 42.5h23q0 -34 -27 -55t-74 -21zM194 566v6q3 14 16.5 23.5t26 20t12.5 26.5q0 14 -9.5 21.5t-21.5 7.5q-11 0 -22.5 -7.5t-16.5 -24.5l-22 6q6 23 24 35t37 12
q21 0 37.5 -11.5t16.5 -35.5q0 -23 -13 -35t-25.5 -21t-12.5 -23h-27z" />
    <glyph glyph-name="uni1EB5.ss01" horiz-adv-x="448" 
d="M381 -9q-9 0 -18.5 4t-17 12t-12 23t-4.5 37v215q0 32 -17.5 53.5t-45 33t-59.5 11.5q-29 0 -57.5 -10.5t-48 -31t-23.5 -52.5h-27q7 40 31 66t58 39t69 13q37 0 70.5 -13.5t55 -40.5t21.5 -68v-215q0 -28 9 -39.5t21 -11.5t22 4t12 6l8 -22l-9 -4.5t-17 -6t-21 -2.5z
M145 -9q-51 0 -82 28t-31 74q0 36 17 58.5t45 36.5t61.5 22.5t65.5 15.5q45 10 68.5 17t31.5 16t8 23l6 -120q-24 -80 -74.5 -125.5t-115.5 -45.5zM147 18q47 0 88 29.5t66 78.5t25 108q-13 -10 -39.5 -16.5t-59.5 -14.5q-45 -10 -83.5 -21t-61.5 -31t-23 -57
q0 -34 22.5 -55t65.5 -21zM212 459q-47 0 -75 21t-28 55h22q0 -34 24 -42.5t56 -8.5t55.5 8.5t23.5 42.5h23q0 -34 -27 -55t-74 -21zM112 573q-1 17 1 30t8 23t16 15t25 5q21 0 33.5 -8t21 -18.5t18 -18.5t24.5 -8q18 0 21.5 14t3.5 40h25q1 -16 -1 -30t-8 -23.5t-16 -15
t-25 -5.5q-20 0 -33 8t-22 18.5t-18.5 18.5t-23.5 8q-17 0 -21.5 -14t-3.5 -39h-25z" />
    <glyph glyph-name="acircumflex.ss01" horiz-adv-x="448" 
d="M381 -9q-9 0 -18.5 4t-17 12t-12 23t-4.5 37v215q0 32 -17.5 53.5t-45 33t-59.5 11.5q-29 0 -57.5 -10.5t-48 -31t-23.5 -52.5h-27q7 40 31 66t58 39t69 13q37 0 70.5 -13.5t55 -40.5t21.5 -68v-215q0 -28 9 -39.5t21 -11.5t22 4t12 6l8 -22l-9 -4.5t-17 -6t-21 -2.5z
M145 -9q-51 0 -82 28t-31 74q0 36 17 58.5t45 36.5t61.5 22.5t65.5 15.5q45 10 68.5 17t31.5 16t8 23l6 -120q-24 -80 -74.5 -125.5t-115.5 -45.5zM147 18q47 0 88 29.5t66 78.5t25 108q-13 -10 -39.5 -16.5t-59.5 -14.5q-45 -10 -83.5 -21t-61.5 -31t-23 -57
q0 -34 22.5 -55t65.5 -21zM103 461v6l100 98h14l101 -98v-6h-31l-76 82h-2l-75 -82h-31z" />
    <glyph glyph-name="uni1EA5.ss01" horiz-adv-x="448" 
d="M381 -9q-9 0 -18.5 4t-17 12t-12 23t-4.5 37v215q0 32 -17.5 53.5t-45 33t-59.5 11.5q-29 0 -57.5 -10.5t-48 -31t-23.5 -52.5h-27q7 40 31 66t58 39t69 13q37 0 70.5 -13.5t55 -40.5t21.5 -68v-215q0 -28 9 -39.5t21 -11.5t22 4t12 6l8 -22l-9 -4.5t-17 -6t-21 -2.5z
M145 -9q-51 0 -82 28t-31 74q0 36 17 58.5t45 36.5t61.5 22.5t65.5 15.5q45 10 68.5 17t31.5 16t8 23l6 -120q-24 -80 -74.5 -125.5t-115.5 -45.5zM147 18q47 0 88 29.5t66 78.5t25 108q-13 -10 -39.5 -16.5t-59.5 -14.5q-45 -10 -83.5 -21t-61.5 -31t-23 -57
q0 -34 22.5 -55t65.5 -21zM104 461v6l100 98h14l101 -98v-6h-31l-76 82h-2l-75 -82h-31zM323 543h-16v6l57 106h30v-11z" />
    <glyph glyph-name="uni1EAD.ss01" horiz-adv-x="448" 
d="M381 -9q-9 0 -18.5 4t-17 12t-12 23t-4.5 37v215q0 32 -17.5 53.5t-45 33t-59.5 11.5q-29 0 -57.5 -10.5t-48 -31t-23.5 -52.5h-27q7 40 31 66t58 39t69 13q37 0 70.5 -13.5t55 -40.5t21.5 -68v-215q0 -28 9 -39.5t21 -11.5t22 4t12 6l8 -22l-9 -4.5t-17 -6t-21 -2.5z
M145 -9q-51 0 -82 28t-31 74q0 36 17 58.5t45 36.5t61.5 22.5t65.5 15.5q45 10 68.5 17t31.5 16t8 23l6 -120q-24 -80 -74.5 -125.5t-115.5 -45.5zM147 18q47 0 88 29.5t66 78.5t25 108q-13 -10 -39.5 -16.5t-59.5 -14.5q-45 -10 -83.5 -21t-61.5 -31t-23 -57
q0 -34 22.5 -55t65.5 -21zM224 -122q-16 0 -22 8.5t-6 19.5t6 19t22 8q17 0 22 -8t5 -19t-5 -19.5t-22 -8.5zM103 461v6l100 98h14l101 -98v-6h-31l-76 82h-2l-75 -82h-31z" />
    <glyph glyph-name="uni1EA7.ss01" horiz-adv-x="448" 
d="M381 -9q-9 0 -18.5 4t-17 12t-12 23t-4.5 37v215q0 32 -17.5 53.5t-45 33t-59.5 11.5q-29 0 -57.5 -10.5t-48 -31t-23.5 -52.5h-27q7 40 31 66t58 39t69 13q37 0 70.5 -13.5t55 -40.5t21.5 -68v-215q0 -28 9 -39.5t21 -11.5t22 4t12 6l8 -22l-9 -4.5t-17 -6t-21 -2.5z
M145 -9q-51 0 -82 28t-31 74q0 36 17 58.5t45 36.5t61.5 22.5t65.5 15.5q45 10 68.5 17t31.5 16t8 23l6 -120q-24 -80 -74.5 -125.5t-115.5 -45.5zM147 18q47 0 88 29.5t66 78.5t25 108q-13 -10 -39.5 -16.5t-59.5 -14.5q-45 -10 -83.5 -21t-61.5 -31t-23 -57
q0 -34 22.5 -55t65.5 -21zM311 543l-71 101v11h30l57 -106v-6h-16zM96 461v6l100 98h14l101 -98v-6h-31l-76 82h-2l-75 -82h-31z" />
    <glyph glyph-name="uni1EA9.ss01" horiz-adv-x="448" 
d="M381 -9q-9 0 -18.5 4t-17 12t-12 23t-4.5 37v215q0 32 -17.5 53.5t-45 33t-59.5 11.5q-29 0 -57.5 -10.5t-48 -31t-23.5 -52.5h-27q7 40 31 66t58 39t69 13q37 0 70.5 -13.5t55 -40.5t21.5 -68v-215q0 -28 9 -39.5t21 -11.5t22 4t12 6l8 -22l-9 -4.5t-17 -6t-21 -2.5z
M145 -9q-51 0 -82 28t-31 74q0 36 17 58.5t45 36.5t61.5 22.5t65.5 15.5q45 10 68.5 17t31.5 16t8 23l6 -120q-24 -80 -74.5 -125.5t-115.5 -45.5zM147 18q47 0 88 29.5t66 78.5t25 108q-13 -10 -39.5 -16.5t-59.5 -14.5q-45 -10 -83.5 -21t-61.5 -31t-23 -57
q0 -34 22.5 -55t65.5 -21zM96 461v6l100 98h14l101 -98v-6h-31l-76 82h-2l-75 -82h-31zM297 552v6q3 14 16.5 23.5t26 20t12.5 26.5q0 14 -9.5 21.5t-21.5 7.5q-11 0 -22.5 -7.5t-16.5 -24.5l-22 6q6 23 24 35t37 12q21 0 37.5 -11.5t16.5 -35.5q0 -23 -13 -35t-25.5 -21
t-12.5 -23h-27z" />
    <glyph glyph-name="uni1EAB.ss01" horiz-adv-x="448" 
d="M381 -9q-9 0 -18.5 4t-17 12t-12 23t-4.5 37v215q0 32 -17.5 53.5t-45 33t-59.5 11.5q-29 0 -57.5 -10.5t-48 -31t-23.5 -52.5h-27q7 40 31 66t58 39t69 13q37 0 70.5 -13.5t55 -40.5t21.5 -68v-215q0 -28 9 -39.5t21 -11.5t22 4t12 6l8 -22l-9 -4.5t-17 -6t-21 -2.5z
M145 -9q-51 0 -82 28t-31 74q0 36 17 58.5t45 36.5t61.5 22.5t65.5 15.5q45 10 68.5 17t31.5 16t8 23l6 -120q-24 -80 -74.5 -125.5t-115.5 -45.5zM147 18q47 0 88 29.5t66 78.5t25 108q-13 -10 -39.5 -16.5t-59.5 -14.5q-45 -10 -83.5 -21t-61.5 -31t-23 -57
q0 -34 22.5 -55t65.5 -21zM104 461v6l100 98h14l101 -98v-6h-31l-76 82h-2l-75 -82h-31zM112 615q-1 17 1 30t8 23t16 15t25 5q21 0 33.5 -8t21 -18.5t18 -18.5t24.5 -8q18 0 21.5 14t3.5 40h25q1 -16 -1 -30t-8 -23.5t-16 -15t-25 -5.5q-20 0 -33 8t-22 18.5t-18.5 18.5
t-23.5 8q-17 0 -21.5 -14t-3.5 -39h-25z" />
    <glyph glyph-name="adieresis.ss01" horiz-adv-x="448" 
d="M381 -9q-9 0 -18.5 4t-17 12t-12 23t-4.5 37v215q0 32 -17.5 53.5t-45 33t-59.5 11.5q-29 0 -57.5 -10.5t-48 -31t-23.5 -52.5h-27q7 40 31 66t58 39t69 13q37 0 70.5 -13.5t55 -40.5t21.5 -68v-215q0 -28 9 -39.5t21 -11.5t22 4t12 6l8 -22l-9 -4.5t-17 -6t-21 -2.5z
M145 -9q-51 0 -82 28t-31 74q0 36 17 58.5t45 36.5t61.5 22.5t65.5 15.5q45 10 68.5 17t31.5 16t8 23l6 -120q-24 -80 -74.5 -125.5t-115.5 -45.5zM147 18q47 0 88 29.5t66 78.5t25 108q-13 -10 -39.5 -16.5t-59.5 -14.5q-45 -10 -83.5 -21t-61.5 -31t-23 -57
q0 -34 22.5 -55t65.5 -21zM145 465q-20 0 -27 10.5t-7 23.5t7 23t27 10t26.5 -10t6.5 -23t-6.5 -23.5t-26.5 -10.5zM277 465q-20 0 -27 10.5t-7 23.5t7 23t27 10t26.5 -10t6.5 -23t-6.5 -23.5t-26.5 -10.5z" />
    <glyph glyph-name="uni1EA1.ss01" horiz-adv-x="448" 
d="M381 -9q-9 0 -18.5 4t-17 12t-12 23t-4.5 37v215q0 32 -17.5 53.5t-45 33t-59.5 11.5q-29 0 -57.5 -10.5t-48 -31t-23.5 -52.5h-27q7 40 31 66t58 39t69 13q37 0 70.5 -13.5t55 -40.5t21.5 -68v-215q0 -28 9 -39.5t21 -11.5t22 4t12 6l8 -22l-9 -4.5t-17 -6t-21 -2.5z
M145 -9q-51 0 -82 28t-31 74q0 36 17 58.5t45 36.5t61.5 22.5t65.5 15.5q45 10 68.5 17t31.5 16t8 23l6 -120q-24 -80 -74.5 -125.5t-115.5 -45.5zM147 18q47 0 88 29.5t66 78.5t25 108q-13 -10 -39.5 -16.5t-59.5 -14.5q-45 -10 -83.5 -21t-61.5 -31t-23 -57
q0 -34 22.5 -55t65.5 -21zM224 -122q-16 0 -22 8.5t-6 19.5t6 19t22 8q17 0 22 -8t5 -19t-5 -19.5t-22 -8.5z" />
    <glyph glyph-name="agrave.ss01" horiz-adv-x="448" 
d="M381 -9q-9 0 -18.5 4t-17 12t-12 23t-4.5 37v215q0 32 -17.5 53.5t-45 33t-59.5 11.5q-29 0 -57.5 -10.5t-48 -31t-23.5 -52.5h-27q7 40 31 66t58 39t69 13q37 0 70.5 -13.5t55 -40.5t21.5 -68v-215q0 -28 9 -39.5t21 -11.5t22 4t12 6l8 -22l-9 -4.5t-17 -6t-21 -2.5z
M145 -9q-51 0 -82 28t-31 74q0 36 17 58.5t45 36.5t61.5 22.5t65.5 15.5q45 10 68.5 17t31.5 16t8 23l6 -120q-24 -80 -74.5 -125.5t-115.5 -45.5zM147 18q47 0 88 29.5t66 78.5t25 108q-13 -10 -39.5 -16.5t-59.5 -14.5q-45 -10 -83.5 -21t-61.5 -31t-23 -57
q0 -34 22.5 -55t65.5 -21zM215 444l-71 101v11h30l57 -106v-6h-16z" />
    <glyph glyph-name="uni1EA3.ss01" horiz-adv-x="448" 
d="M381 -9q-9 0 -18.5 4t-17 12t-12 23t-4.5 37v215q0 32 -17.5 53.5t-45 33t-59.5 11.5q-29 0 -57.5 -10.5t-48 -31t-23.5 -52.5h-27q7 40 31 66t58 39t69 13q37 0 70.5 -13.5t55 -40.5t21.5 -68v-215q0 -28 9 -39.5t21 -11.5t22 4t12 6l8 -22l-9 -4.5t-17 -6t-21 -2.5z
M145 -9q-51 0 -82 28t-31 74q0 36 17 58.5t45 36.5t61.5 22.5t65.5 15.5q45 10 68.5 17t31.5 16t8 23l6 -120q-24 -80 -74.5 -125.5t-115.5 -45.5zM147 18q47 0 88 29.5t66 78.5t25 108q-13 -10 -39.5 -16.5t-59.5 -14.5q-45 -10 -83.5 -21t-61.5 -31t-23 -57
q0 -34 22.5 -55t65.5 -21zM194 463v6q3 14 16.5 23.5t26 20t12.5 26.5q0 14 -9.5 21.5t-21.5 7.5q-11 0 -22.5 -7.5t-16.5 -24.5l-22 6q6 23 24 35t37 12q21 0 37.5 -11.5t16.5 -35.5q0 -23 -13 -35t-25.5 -21t-12.5 -23h-27z" />
    <glyph glyph-name="amacron.ss01" horiz-adv-x="448" 
d="M381 -9q-9 0 -18.5 4t-17 12t-12 23t-4.5 37v215q0 32 -17.5 53.5t-45 33t-59.5 11.5q-29 0 -57.5 -10.5t-48 -31t-23.5 -52.5h-27q7 40 31 66t58 39t69 13q37 0 70.5 -13.5t55 -40.5t21.5 -68v-215q0 -28 9 -39.5t21 -11.5t22 4t12 6l8 -22l-9 -4.5t-17 -6t-21 -2.5z
M145 -9q-51 0 -82 28t-31 74q0 36 17 58.5t45 36.5t61.5 22.5t65.5 15.5q45 10 68.5 17t31.5 16t8 23l6 -120q-24 -80 -74.5 -125.5t-115.5 -45.5zM147 18q47 0 88 29.5t66 78.5t25 108q-13 -10 -39.5 -16.5t-59.5 -14.5q-45 -10 -83.5 -21t-61.5 -31t-23 -57
q0 -34 22.5 -55t65.5 -21zM100 467v26h222v-26h-222z" />
    <glyph glyph-name="aogonek.ss01" horiz-adv-x="448" 
d="M380 -199q-24 0 -41 10t-26 27t-9 38q0 26 12 47t30.5 38t36.5 28t30 17l12 6l5 -13l-15.5 -8.5t-35.5 -25t-35.5 -39t-15.5 -50.5q0 -22 13.5 -36.5t38.5 -14.5q21 0 31.5 8.5t14.5 17l4 8.5l22 -15l-7.5 -10.5t-23.5 -21.5t-41 -11zM381 -9q-9 0 -18.5 4t-17 12t-12 23
t-4.5 37v215q0 32 -17.5 53.5t-45 33t-59.5 11.5q-29 0 -57.5 -10.5t-48 -31t-23.5 -52.5h-27q7 40 31 66t58 39t69 13q37 0 70.5 -13.5t55 -40.5t21.5 -68v-215q0 -28 9 -39.5t21 -11.5t22 4t12 6l8 -22l-9 -4.5t-17 -6t-21 -2.5zM145 -9q-51 0 -82 28t-31 74q0 36 17 58.5
t45 36.5t61.5 22.5t65.5 15.5q45 10 68.5 17t31.5 16t8 23l6 -120q-24 -80 -74.5 -125.5t-115.5 -45.5zM147 18q47 0 88 29.5t66 78.5t25 108q-13 -10 -39.5 -16.5t-59.5 -14.5q-45 -10 -83.5 -21t-61.5 -31t-23 -57q0 -34 22.5 -55t65.5 -21z" />
    <glyph glyph-name="aring.ss01" horiz-adv-x="448" 
d="M381 -9q-9 0 -18.5 4t-17 12t-12 23t-4.5 37v215q0 32 -17.5 53.5t-45 33t-59.5 11.5q-29 0 -57.5 -10.5t-48 -31t-23.5 -52.5h-27q7 40 31 66t58 39t69 13q37 0 70.5 -13.5t55 -40.5t21.5 -68v-215q0 -28 9 -39.5t21 -11.5t22 4t12 6l8 -22l-9 -4.5t-17 -6t-21 -2.5z
M145 -9q-51 0 -82 28t-31 74q0 36 17 58.5t45 36.5t61.5 22.5t65.5 15.5q45 10 68.5 17t31.5 16t8 23l6 -120q-24 -80 -74.5 -125.5t-115.5 -45.5zM147 18q47 0 88 29.5t66 78.5t25 108q-13 -10 -39.5 -16.5t-59.5 -14.5q-45 -10 -83.5 -21t-61.5 -31t-23 -57
q0 -34 22.5 -55t65.5 -21zM210 465q-37 0 -60 22t-23 59q0 38 22.5 60.5t60.5 22.5t61 -22.5t23 -60.5q0 -35 -23 -58t-61 -23zM210 484q29 0 45.5 18.5t16.5 44.5t-16.5 44.5t-45.5 18.5t-46 -18.5t-17 -44.5q0 -27 18.5 -45t44.5 -18z" />
    <glyph glyph-name="atilde.ss01" horiz-adv-x="448" 
d="M381 -9q-9 0 -18.5 4t-17 12t-12 23t-4.5 37v215q0 32 -17.5 53.5t-45 33t-59.5 11.5q-29 0 -57.5 -10.5t-48 -31t-23.5 -52.5h-27q7 40 31 66t58 39t69 13q37 0 70.5 -13.5t55 -40.5t21.5 -68v-215q0 -28 9 -39.5t21 -11.5t22 4t12 6l8 -22l-9 -4.5t-17 -6t-21 -2.5z
M145 -9q-51 0 -82 28t-31 74q0 36 17 58.5t45 36.5t61.5 22.5t65.5 15.5q45 10 68.5 17t31.5 16t8 23l6 -120q-24 -80 -74.5 -125.5t-115.5 -45.5zM147 18q47 0 88 29.5t66 78.5t25 108q-13 -10 -39.5 -16.5t-59.5 -14.5q-45 -10 -83.5 -21t-61.5 -31t-23 -57
q0 -34 22.5 -55t65.5 -21zM112 470q-1 17 1 30t8 23t16 15t25 5q21 0 33.5 -8t21 -18.5t18 -18.5t24.5 -8q18 0 21.5 14t3.5 40h25q1 -16 -1 -30t-8 -23.5t-16 -15t-25 -5.5q-20 0 -33 8t-22 18.5t-18.5 18.5t-23.5 8q-17 0 -21.5 -14t-3.5 -39h-25z" />
    <glyph glyph-name="f.ss01" horiz-adv-x="301" 
d="M256 317h-113v-317h-26v317h-86v26h225v-26zM152 343q-29 0 -57.5 13t-47.5 37.5t-19 58.5q0 32 17 57t47 39.5t68 14.5q35 0 66 -15t54.5 -42.5t32.5 -63.5h-26q0 2 -5.5 16t-19.5 32.5t-38.5 32t-63.5 13.5q-30 0 -54 -11t-38 -30t-14 -43q0 -28 14.5 -49.5t41 -35
t64 -20t82.5 -4.5h-104z" />
    <glyph glyph-name="g.ss01" horiz-adv-x="455" 
d="M87 71q0 -28 18 -39.5t48 -13t65 -2.5q34 0 68 -3t62.5 -12.5t46 -30t17.5 -56.5q0 -41 -29.5 -64.5t-74.5 -33.5t-91 -11q-54 -1 -98 9t-69.5 33.5t-24.5 64.5q1 28 12.5 48t33 31t51.5 11q-27 7 -44.5 22.5t-17.5 46.5q0 26 16 39t38.5 17.5t41.5 4.5q-54 12 -77 47
t-23 81q0 66 43.5 105t120.5 39h46t36 8.5t14 34.5q0 27 -23.5 33.5t-57.5 -4.5l-6 25q25 7 51 5t44 -15.5t18 -42.5q0 -15 -5 -25.5t-12.5 -17t-14.5 -10l-11 -5.5q37 -13 61 -48.5t24 -81.5q0 -36 -17.5 -68.5t-53.5 -52.5t-93 -20q-40 0 -70 -1.5t-46.5 -11t-16.5 -35.5z
M83 260q0 -46 21.5 -71t53 -34t62.5 -9q65 0 100 28t35 86q0 51 -31.5 84.5t-104.5 33.5q-51 0 -81 -16.5t-42.5 -43t-12.5 -58.5zM217 -170q45 0 82.5 8t60 26t22.5 47q0 34 -22 51t-59.5 23t-83.5 6t-83 -4.5t-59 -21.5t-22 -54q0 -33 23 -50.5t60.5 -24t80.5 -6.5z" />
    <glyph glyph-name="gbreve.ss01" horiz-adv-x="455" 
d="M87 71q0 -28 18 -39.5t48 -13t65 -2.5q34 0 68 -3t62.5 -12.5t46 -30t17.5 -56.5q0 -41 -29.5 -64.5t-74.5 -33.5t-91 -11q-54 -1 -98 9t-69.5 33.5t-24.5 64.5q1 28 12.5 48t33 31t51.5 11q-27 7 -44.5 22.5t-17.5 46.5q0 26 16 39t38.5 17.5t41.5 4.5q-54 12 -77 47
t-23 81q0 66 43.5 105t120.5 39h46t36 8.5t14 34.5q0 27 -23.5 33.5t-57.5 -4.5l-6 25q25 7 51 5t44 -15.5t18 -42.5q0 -15 -5 -25.5t-12.5 -17t-14.5 -10l-11 -5.5q37 -13 61 -48.5t24 -81.5q0 -36 -17.5 -68.5t-53.5 -52.5t-93 -20q-40 0 -70 -1.5t-46.5 -11t-16.5 -35.5z
M83 260q0 -46 21.5 -71t53 -34t62.5 -9q65 0 100 28t35 86q0 51 -31.5 84.5t-104.5 33.5q-51 0 -81 -16.5t-42.5 -43t-12.5 -58.5zM217 -170q45 0 82.5 8t60 26t22.5 47q0 34 -22 51t-59.5 23t-83.5 6t-83 -4.5t-59 -21.5t-22 -54q0 -33 23 -50.5t60.5 -24t80.5 -6.5z
M219 539q-47 0 -75 21t-28 55h22q0 -34 24 -42.5t56 -8.5t55.5 8.5t23.5 42.5h23q0 -34 -27 -55t-74 -21z" />
    <glyph glyph-name="uni0123.ss01" horiz-adv-x="455" 
d="M87 71q0 -28 18 -39.5t48 -13t65 -2.5q34 0 68 -3t62.5 -12.5t46 -30t17.5 -56.5q0 -41 -29.5 -64.5t-74.5 -33.5t-91 -11q-54 -1 -98 9t-69.5 33.5t-24.5 64.5q1 28 12.5 48t33 31t51.5 11q-27 7 -44.5 22.5t-17.5 46.5q0 26 16 39t38.5 17.5t41.5 4.5q-54 12 -77 47
t-23 81q0 66 43.5 105t120.5 39h46t36 8.5t14 34.5q0 27 -23.5 33.5t-57.5 -4.5l-6 25q25 7 51 5t44 -15.5t18 -42.5q0 -15 -5 -25.5t-12.5 -17t-14.5 -10l-11 -5.5q37 -13 61 -48.5t24 -81.5q0 -36 -17.5 -68.5t-53.5 -52.5t-93 -20q-40 0 -70 -1.5t-46.5 -11t-16.5 -35.5z
M83 260q0 -46 21.5 -71t53 -34t62.5 -9q65 0 100 28t35 86q0 51 -31.5 84.5t-104.5 33.5q-51 0 -81 -16.5t-42.5 -43t-12.5 -58.5zM217 -170q45 0 82.5 8t60 26t22.5 47q0 34 -22 51t-59.5 23t-83.5 6t-83 -4.5t-59 -21.5t-22 -54q0 -33 23 -50.5t60.5 -24t80.5 -6.5z
M208 537h-16v6l57 106h30v-11z" />
    <glyph glyph-name="gdotaccent.ss01" horiz-adv-x="455" 
d="M87 71q0 -28 18 -39.5t48 -13t65 -2.5q34 0 68 -3t62.5 -12.5t46 -30t17.5 -56.5q0 -41 -29.5 -64.5t-74.5 -33.5t-91 -11q-54 -1 -98 9t-69.5 33.5t-24.5 64.5q1 28 12.5 48t33 31t51.5 11q-27 7 -44.5 22.5t-17.5 46.5q0 26 16 39t38.5 17.5t41.5 4.5q-54 12 -77 47
t-23 81q0 66 43.5 105t120.5 39h46t36 8.5t14 34.5q0 27 -23.5 33.5t-57.5 -4.5l-6 25q25 7 51 5t44 -15.5t18 -42.5q0 -15 -5 -25.5t-12.5 -17t-14.5 -10l-11 -5.5q37 -13 61 -48.5t24 -81.5q0 -36 -17.5 -68.5t-53.5 -52.5t-93 -20q-40 0 -70 -1.5t-46.5 -11t-16.5 -35.5z
M83 260q0 -46 21.5 -71t53 -34t62.5 -9q65 0 100 28t35 86q0 51 -31.5 84.5t-104.5 33.5q-51 0 -81 -16.5t-42.5 -43t-12.5 -58.5zM217 -170q45 0 82.5 8t60 26t22.5 47q0 34 -22 51t-59.5 23t-83.5 6t-83 -4.5t-59 -21.5t-22 -54q0 -33 23 -50.5t60.5 -24t80.5 -6.5z
M218 553q-16 0 -22 8.5t-6 19.5t6 19t22 8q17 0 22 -8t5 -19t-5 -19.5t-22 -8.5z" />
    <glyph glyph-name="lcaron.ss01" horiz-adv-x="137" 
d="M55 0v563h27v-563h-27zM124 441l37 134h30l-51 -134h-16z" />
    <glyph glyph-name="x.ss01" horiz-adv-x="341" 
d="M55 360l19 19l212 -212l-19 -19zM55 168l212 211l18 -18l-211 -212z" />
    <glyph glyph-name="f_f.dlig" horiz-adv-x="485" 
d="M80 -4v520q0 15 4.5 31t29.5 16h133v-25h-139v-542h-28zM10 379v25h227v-25h-227zM318 -4v520q0 15 4.5 31t29.5 16h133v-25h-139v-542h-28zM237 379v25h238v-25h-238z" />
    <glyph glyph-name="f_i.dlig" horiz-adv-x="373" 
d="M80 -4v520q0 15 4.5 31t29.5 16h133v-25h-139v-542h-28zM10 379v25h310v-25h-310zM295 0v404h4h9h9h4v-404h-26z" />
    <glyph glyph-name="f_t.dlig" horiz-adv-x="476" 
d="M80 -4v520q0 15 4.5 31t29.5 16h133v-25h-139v-542h-28zM10 379v25h227v-25h-227zM338 0q-25 0 -29.5 16t-4.5 31v339h27v-361h95v-25h-88zM236 379v25q28 0 42.5 2t19.5 11t5.5 31t0.5 61h27v-105h95v-25h-190z" />
    <glyph glyph-name="t_t.dlig" horiz-adv-x="451" 
d="M109 0q-25 0 -29.5 16t-4.5 31v339h27v-361h95v-25h-88zM7 379v25q28 0 42.5 2t19.5 11t5.5 31t0.5 61h27v-105h109v-25h-204zM313 0q-25 0 -29.5 16t-4.5 31v339h27v-361h95v-25h-88zM211 379v25q28 0 42.5 2t19.5 11t5.5 31t0.5 61h27v-105h95v-25h-190z" />
    <glyph glyph-name="zero.dnom" horiz-adv-x="245" 
d="M122 -10q-55 0 -81 38.5t-26 105.5q0 66 25.5 104.5t81.5 38.5t82 -38t26 -105q0 -65 -26 -104.5t-82 -39.5zM122 13q43 0 62.5 31.5t19.5 89.5t-19 89t-63 31q-41 0 -61 -30.5t-20 -89.5q0 -58 19 -89.5t62 -31.5z" />
    <glyph glyph-name="one.dnom" horiz-adv-x="156" 
d="M75 12v224q-7 -19 -20 -29t-24.5 -13.5t-15.5 -3.5v29q4 0 19 4t29 16.5t14 37.5h24v-265h-26zM31 0v25h110v-25h-110z" />
    <glyph glyph-name="two.dnom" horiz-adv-x="228" 
d="M15 0v23l19.5 13.5t47 35.5t52.5 46.5t37 47.5q18 35 0.5 61.5t-58.5 26.5q-28 0 -47 -17.5t-18 -51.5l-25 2q-1 42 25 66t68 24q36 0 59.5 -16.5t30 -43t-9.5 -57.5q-10 -21 -33 -43.5t-48.5 -43t-45.5 -34t-24 -15.5h168v-24h-198z" />
    <glyph glyph-name="three.dnom" horiz-adv-x="231" 
d="M118 -10q-40 0 -71 22.5t-32 68.5l26 3q2 -36 25.5 -53t51.5 -17q29 0 51 16.5t22 42.5q0 23 -11 35t-25 16.5t-24 4.5h-38v16h39q24 0 38 15t14 35q0 28 -18.5 43.5t-49.5 15.5q-25 0 -40 -10.5t-22 -24.5t-8 -25l-25 3q0 8 5 21t16 26.5t29 23t45 9.5q42 0 67.5 -20.5
t25.5 -56.5q0 -23 -12.5 -40t-32.5 -23q21 -5 36.5 -22.5t15.5 -45.5q0 -35 -28 -57t-70 -22z" />
    <glyph glyph-name="four.dnom" horiz-adv-x="244" 
d="M15 59v25q32 15 57.5 47t41.5 71t16 75h30q0 -55 -33 -107.5t-81 -85.5h183v-25h-214zM162 0v138h28v-138h-28z" />
    <glyph glyph-name="five.dnom" horiz-adv-x="234" 
d="M115 -10q-27 0 -47.5 9t-33.5 25t-19 37l28 3q1 -2 6.5 -14.5t21 -24t45.5 -11.5q37 0 57 22.5t20 47.5q0 26 -18 48t-56 22q-25 0 -40 -8t-21.5 -15.5t-6.5 -8.5l-27 6l14 139h168v-25h-147l-10 -99l7.5 8t24 16t44.5 8q50 0 72 -27.5t22 -62.5q0 -37 -27.5 -66
t-76.5 -29z" />
    <glyph glyph-name="six.dnom" horiz-adv-x="237" 
d="M122 -10q-38 0 -61.5 19.5t-34.5 51t-11 68.5t12.5 70.5t39 55.5t66.5 22q23 0 38.5 -7t24.5 -15.5t13 -15.5l4 -7l-27 -7l-5 7t-17 14t-32 7q-31 0 -53.5 -20.5t-32 -54.5t-3.5 -75q2 14 11.5 32t28.5 31t46 13q49 0 71 -27t22 -59q0 -39 -25 -71t-75 -32zM123 13
q36 0 55 24t19 55q0 25 -18.5 46t-54.5 21q-34 0 -55 -24.5t-21 -55.5q6 -29 26.5 -47.5t48.5 -18.5z" />
    <glyph glyph-name="seven.dnom" horiz-adv-x="223" 
d="M56 0q0 85 34 141.5t89 100.5h-164v25h193v-24q-15 -12 -35.5 -30t-40.5 -46t-33.5 -69t-13.5 -98h-29z" />
    <glyph glyph-name="eight.dnom" horiz-adv-x="245" 
d="M122 -10q-46 0 -76.5 21t-30.5 58q0 26 17.5 46t46.5 26q-20 5 -30.5 16t-14 24t-3.5 22q0 32 25.5 53t65.5 21q41 0 66.5 -21.5t25.5 -52.5q0 -9 -3.5 -22t-14 -24t-31.5 -16q29 -6 47 -25.5t18 -46.5q0 -39 -31 -59t-77 -20zM122 13q38 0 59.5 17.5t21.5 42.5
q0 29 -21.5 45t-59.5 16q-37 0 -58.5 -16t-21.5 -45q0 -25 21.5 -42.5t58.5 -17.5zM122 149q30 0 48.5 12t18.5 37q0 26 -19 41t-48 15q-30 0 -48.5 -15.5t-18.5 -40.5t19.5 -37t47.5 -12z" />
    <glyph glyph-name="nine.dnom" horiz-adv-x="240" 
d="M104 -10q-23 0 -38.5 7t-24.5 15.5t-13 15.5l-4 7l27 7l5 -7t17 -14t32 -7q32 0 54 20.5t31.5 54.5t3.5 75q-1 -14 -11 -32t-28.5 -31t-46.5 -13q-49 0 -71 27.5t-22 58.5q0 39 25.5 71t74.5 32q38 0 61.5 -19.5t34.5 -51t11 -68.5q0 -36 -12.5 -70t-38.5 -56t-67 -22z
M113 108q35 0 55.5 24.5t20.5 55.5q-6 29 -26 47.5t-49 18.5q-36 0 -55 -23.5t-19 -55.5q0 -25 18.5 -46t54.5 -21z" />
    <glyph glyph-name="zero.numr" horiz-adv-x="245" 
d="M122 277q-55 0 -81 38.5t-26 105.5q0 66 25.5 104.5t81.5 38.5t82 -38t26 -105q0 -65 -26 -104.5t-82 -39.5zM122 300q43 0 62.5 31.5t19.5 89.5t-19 89t-63 31q-41 0 -61 -30.5t-20 -89.5q0 -58 19 -89.5t62 -31.5z" />
    <glyph glyph-name="one.numr" horiz-adv-x="156" 
d="M75 299v224q-7 -19 -20 -29t-24.5 -13.5t-15.5 -3.5v29q4 0 19 4t29 16.5t14 37.5h24v-265h-26zM31 287v25h110v-25h-110z" />
    <glyph glyph-name="two.numr" horiz-adv-x="228" 
d="M15 287v23l19.5 13.5t47 35.5t52.5 46.5t37 47.5q18 35 0.5 61.5t-58.5 26.5q-28 0 -47 -17.5t-18 -51.5l-25 2q-1 42 25 66t68 24q36 0 59.5 -16.5t30 -43t-9.5 -57.5q-10 -21 -33 -43.5t-48.5 -43t-45.5 -34t-24 -15.5h168v-24h-198z" />
    <glyph glyph-name="three.numr" horiz-adv-x="231" 
d="M118 277q-40 0 -71 22.5t-32 68.5l26 3q2 -36 25.5 -53t51.5 -17q29 0 51 16.5t22 42.5q0 23 -11 35t-25 16.5t-24 4.5h-38v16h39q24 0 38 15t14 35q0 28 -18.5 43.5t-49.5 15.5q-25 0 -40 -10.5t-22 -24.5t-8 -25l-25 3q0 8 5 21t16 26.5t29 23t45 9.5q42 0 67.5 -20.5
t25.5 -56.5q0 -23 -12.5 -40t-32.5 -23q21 -5 36.5 -22.5t15.5 -45.5q0 -35 -28 -57t-70 -22z" />
    <glyph glyph-name="four.numr" horiz-adv-x="244" 
d="M15 346v25q32 15 57.5 47t41.5 71t16 75h30q0 -55 -33 -107.5t-81 -85.5h183v-25h-214zM162 287v138h28v-138h-28z" />
    <glyph glyph-name="five.numr" horiz-adv-x="234" 
d="M115 277q-27 0 -47.5 9t-33.5 25t-19 37l28 3q1 -2 6.5 -14.5t21 -24t45.5 -11.5q37 0 57 22.5t20 47.5q0 26 -18 48t-56 22q-25 0 -40 -8t-21.5 -15.5t-6.5 -8.5l-27 6l14 139h168v-25h-147l-10 -99l7.5 8t24 16t44.5 8q50 0 72 -27.5t22 -62.5q0 -37 -27.5 -66
t-76.5 -29z" />
    <glyph glyph-name="six.numr" horiz-adv-x="237" 
d="M122 277q-38 0 -61.5 19.5t-34.5 51t-11 68.5t12.5 70.5t39 55.5t66.5 22q23 0 38.5 -7t24.5 -15.5t13 -15.5l4 -7l-27 -7l-5 7t-17 14t-32 7q-31 0 -53.5 -20.5t-32 -54.5t-3.5 -75q2 14 11.5 32t28.5 31t46 13q49 0 71 -27t22 -59q0 -39 -25 -71t-75 -32zM123 300
q36 0 55 24t19 55q0 25 -18.5 46t-54.5 21q-34 0 -55 -24.5t-21 -55.5q6 -29 26.5 -47.5t48.5 -18.5z" />
    <glyph glyph-name="seven.numr" horiz-adv-x="223" 
d="M56 287q0 85 34 141.5t89 100.5h-164v25h193v-24q-15 -12 -35.5 -30t-40.5 -46t-33.5 -69t-13.5 -98h-29z" />
    <glyph glyph-name="eight.numr" horiz-adv-x="245" 
d="M122 277q-46 0 -76.5 21t-30.5 58q0 26 17.5 46t46.5 26q-20 5 -30.5 16t-14 24t-3.5 22q0 32 25.5 53t65.5 21q41 0 66.5 -21.5t25.5 -52.5q0 -9 -3.5 -22t-14 -24t-31.5 -16q29 -6 47 -25.5t18 -46.5q0 -39 -31 -59t-77 -20zM122 300q38 0 59.5 17.5t21.5 42.5
q0 29 -21.5 45t-59.5 16q-37 0 -58.5 -16t-21.5 -45q0 -25 21.5 -42.5t58.5 -17.5zM122 436q30 0 48.5 12t18.5 37q0 26 -19 41t-48 15q-30 0 -48.5 -15.5t-18.5 -40.5t19.5 -37t47.5 -12z" />
    <glyph glyph-name="nine.numr" horiz-adv-x="240" 
d="M104 277q-23 0 -38.5 7t-24.5 15.5t-13 15.5l-4 7l27 7l5 -7t17 -14t32 -7q32 0 54 20.5t31.5 54.5t3.5 75q-1 -14 -11 -32t-28.5 -31t-46.5 -13q-49 0 -71 27.5t-22 58.5q0 39 25.5 71t74.5 32q38 0 61.5 -19.5t34.5 -51t11 -68.5q0 -36 -12.5 -70t-38.5 -56t-67 -22z
M113 395q35 0 55.5 24.5t20.5 55.5q-6 29 -26 47.5t-49 18.5q-36 0 -55 -23.5t-19 -55.5q0 -25 18.5 -46t54.5 -21z" />
    <glyph glyph-name="zero.subs" horiz-adv-x="245" 
d="M122 -149q-55 0 -81 38.5t-26 105.5q0 66 25.5 104.5t81.5 38.5t82 -38t26 -105q0 -65 -26 -104.5t-82 -39.5zM122 -126q43 0 62.5 31.5t19.5 89.5t-19 89t-63 31q-41 0 -61 -30.5t-20 -89.5q0 -58 19 -89.5t62 -31.5z" />
    <glyph glyph-name="one.subs" horiz-adv-x="156" 
d="M75 -127v224q-7 -19 -20 -29t-24.5 -13.5t-15.5 -3.5v29q4 0 19 4t29 16.5t14 37.5h24v-265h-26zM31 -139v25h110v-25h-110z" />
    <glyph glyph-name="two.subs" horiz-adv-x="228" 
d="M15 -139v23l19.5 13.5t47 35.5t52.5 46.5t37 47.5q18 35 0.5 61.5t-58.5 26.5q-28 0 -47 -17.5t-18 -51.5l-25 2q-1 42 25 66t68 24q36 0 59.5 -16.5t30 -43t-9.5 -57.5q-10 -21 -33 -43.5t-48.5 -43t-45.5 -34t-24 -15.5h168v-24h-198z" />
    <glyph glyph-name="three.subs" horiz-adv-x="231" 
d="M118 -149q-40 0 -71 22.5t-32 68.5l26 3q2 -36 25.5 -53t51.5 -17q29 0 51 16.5t22 42.5q0 23 -11 35t-25 16.5t-24 4.5h-38v16h39q24 0 38 15t14 35q0 28 -18.5 43.5t-49.5 15.5q-25 0 -40 -10.5t-22 -24.5t-8 -25l-25 3q0 8 5 21t16 26.5t29 23t45 9.5q42 0 67.5 -20.5
t25.5 -56.5q0 -23 -12.5 -40t-32.5 -23q21 -5 36.5 -22.5t15.5 -45.5q0 -35 -28 -57t-70 -22z" />
    <glyph glyph-name="four.subs" horiz-adv-x="244" 
d="M15 -80v25q32 15 57.5 47t41.5 71t16 75h30q0 -55 -33 -107.5t-81 -85.5h183v-25h-214zM162 -139v138h28v-138h-28z" />
    <glyph glyph-name="five.subs" horiz-adv-x="234" 
d="M115 -149q-27 0 -47.5 9t-33.5 25t-19 37l28 3q1 -2 6.5 -14.5t21 -24t45.5 -11.5q37 0 57 22.5t20 47.5q0 26 -18 48t-56 22q-25 0 -40 -8t-21.5 -15.5t-6.5 -8.5l-27 6l14 139h168v-25h-147l-10 -99l7.5 8t24 16t44.5 8q50 0 72 -27.5t22 -62.5q0 -37 -27.5 -66
t-76.5 -29z" />
    <glyph glyph-name="six.subs" horiz-adv-x="237" 
d="M122 -149q-38 0 -61.5 19.5t-34.5 51t-11 68.5t12.5 70.5t39 55.5t66.5 22q23 0 38.5 -7t24.5 -15.5t13 -15.5l4 -7l-27 -7l-5 7t-17 14t-32 7q-31 0 -53.5 -20.5t-32 -54.5t-3.5 -75q2 14 11.5 32t28.5 31t46 13q49 0 71 -27t22 -59q0 -39 -25 -71t-75 -32zM123 -126
q36 0 55 24t19 55q0 25 -18.5 46t-54.5 21q-34 0 -55 -24.5t-21 -55.5q6 -29 26.5 -47.5t48.5 -18.5z" />
    <glyph glyph-name="seven.subs" horiz-adv-x="223" 
d="M56 -139q0 85 34 141.5t89 100.5h-164v25h193v-24q-15 -12 -35.5 -30t-40.5 -46t-33.5 -69t-13.5 -98h-29z" />
    <glyph glyph-name="eight.subs" horiz-adv-x="245" 
d="M122 -149q-46 0 -76.5 21t-30.5 58q0 26 17.5 46t46.5 26q-20 5 -30.5 16t-14 24t-3.5 22q0 32 25.5 53t65.5 21q41 0 66.5 -21.5t25.5 -52.5q0 -9 -3.5 -22t-14 -24t-31.5 -16q29 -6 47 -25.5t18 -46.5q0 -39 -31 -59t-77 -20zM122 -126q38 0 59.5 17.5t21.5 42.5
q0 29 -21.5 45t-59.5 16q-37 0 -58.5 -16t-21.5 -45q0 -25 21.5 -42.5t58.5 -17.5zM122 10q30 0 48.5 12t18.5 37q0 26 -19 41t-48 15q-30 0 -48.5 -15.5t-18.5 -40.5t19.5 -37t47.5 -12z" />
    <glyph glyph-name="nine.subs" horiz-adv-x="240" 
d="M104 -149q-23 0 -38.5 7t-24.5 15.5t-13 15.5l-4 7l27 7l5 -7t17 -14t32 -7q32 0 54 20.5t31.5 54.5t3.5 75q-1 -14 -11 -32t-28.5 -31t-46.5 -13q-49 0 -71 27.5t-22 58.5q0 39 25.5 71t74.5 32q38 0 61.5 -19.5t34.5 -51t11 -68.5q0 -36 -12.5 -70t-38.5 -56t-67 -22z
M113 -31q35 0 55.5 24.5t20.5 55.5q-6 29 -26 47.5t-49 18.5q-36 0 -55 -23.5t-19 -55.5q0 -25 18.5 -46t54.5 -21z" />
    <glyph glyph-name="zero.sups" horiz-adv-x="245" 
d="M122 404q-55 0 -81 37.5t-26 101.5q0 62 25.5 100t81.5 38t82 -37.5t26 -100.5q0 -61 -26 -100t-82 -39zM122 427q43 0 62.5 30.5t19.5 85.5q0 54 -19 84.5t-63 30.5q-41 0 -61 -29.5t-20 -85.5q0 -54 19 -85t62 -31z" />
    <glyph glyph-name="five.sups" horiz-adv-x="234" 
d="M115 394q-27 0 -47.5 9t-33.5 25t-19 37l28 3q1 -2 6.5 -14.5t21 -24t45.5 -11.5q37 0 56.5 21.5t20.5 46.5q2 26 -17 49t-57 23q-25 0 -40 -8t-21.5 -15.5t-6.5 -8.5l-27 6l14 139h168v-25h-147l-10 -99l7.5 8t24 16t44.5 8q50 0 73 -29.5t21 -64.5q-2 -34 -28.5 -62.5
t-75.5 -28.5z" />
    <glyph glyph-name="six.sups" horiz-adv-x="237" 
d="M122 394q-57 0 -82 38.5t-25 90.5q0 37 12.5 70.5t39 55.5t66.5 22q23 0 38.5 -7t24.5 -15.5t13 -15.5l4 -7l-27 -7l-5 7t-17 14t-32 7q-31 0 -53.5 -20.5t-32 -54.5t-3.5 -75q2 14 12 32.5t30 32t51 11.5q36 -1 57 -19t26.5 -44.5t-3.5 -53t-32.5 -44.5t-61.5 -18z
M123 417q35 0 53.5 20t20 46t-14.5 47t-51 23q-40 2 -61.5 -23.5t-21.5 -56.5q6 -25 26.5 -40.5t48.5 -15.5z" />
    <glyph glyph-name="seven.sups" horiz-adv-x="223" 
d="M56 404q0 57 15.5 103t43.5 83t64 66h-164v25h193v-24q-15 -12 -35.5 -31.5t-40.5 -49.5t-33.5 -72.5t-13.5 -99.5h-29z" />
    <glyph glyph-name="eight.sups" horiz-adv-x="245" 
d="M122 394q-46 0 -76.5 20t-30.5 57q0 26 17.5 44.5t46.5 24.5q-20 5 -30.5 15.5t-14 22.5t-3.5 21q0 32 25.5 52t65.5 20q41 0 66.5 -20.5t25.5 -51.5q0 -9 -3.5 -21t-14 -22.5t-31.5 -15.5q29 -6 47 -24t18 -45q0 -39 -31 -58t-77 -19zM122 417q38 0 59.5 16.5t21.5 41.5
q0 29 -21.5 43.5t-59.5 14.5q-37 0 -58.5 -14.5t-21.5 -43.5q0 -25 21.5 -41.5t58.5 -16.5zM122 548q30 0 48.5 10.5t18.5 35.5q0 26 -19 40t-48 14q-30 0 -48.5 -14.5t-18.5 -39.5t19.5 -35.5t47.5 -10.5z" />
    <glyph glyph-name="nine.sups" horiz-adv-x="240" 
d="M117 394q-27 0 -45 7.5t-29 17.5t-16 17.5t-5 8.5l25 8q1 0 7.5 -9t22 -17.5t40.5 -8.5q32 0 50.5 18.5t25.5 51.5t5 77q-2 -14 -12.5 -31t-29.5 -29.5t-47 -12.5q-38 0 -61 18t-29.5 45t2 53.5t32.5 44.5t64 18q39 0 63.5 -19.5t35.5 -51.5t8 -72q-2 -39 -12.5 -69.5
t-33 -47.5t-61.5 -17zM114 511q35 0 55 21.5t25 52.5q-7 29 -26 46t-51 17q-29 0 -47 -14t-24.5 -34t-1 -40.5t23 -34.5t46.5 -14z" />
    <glyph glyph-name="hyphen_greater.dlig" horiz-adv-x="468" 
d="M433 212q-41 0 -67 12t-41 30.5t-21.5 36.5t-8 30.5t-1.5 13.5h25q0 -1 2.5 -16t13 -34t33.5 -33t65 -14v-26zM35 212v26h398v-26h-398zM294 115l1.5 12.5t8 31t21.5 36.5t41 30.5t67 12.5v-26q-42 0 -65 -14t-33.5 -33t-13 -33.5t-2.5 -16.5h-25z" />
    <glyph glyph-name="parenleft_greater.dlig" horiz-adv-x="657" 
d="M329 -25q-61 0 -114 23t-93.5 63.5t-63.5 93.5t-23 114q0 60 23 113t63.5 93.5t93.5 63.5t114 23t114 -23t93.5 -63.5t63 -93.5t22.5 -113q0 -61 -22.5 -114t-63 -93.5t-93.5 -63.5t-114 -23zM329 0q56 0 104.5 21t85 58t57.5 85.5t21 104.5t-21 104.5t-57.5 85t-85 57.5
t-104.5 21q-55 0 -104 -21t-86 -57.5t-58 -85t-21 -104.5t21 -104.5t58 -85.5t86 -58t104 -21zM283 182l131 90l-131 84v-174zM257 134v268l202 -130z" />
    <glyph glyph-name="colon_parenleft.dlig" horiz-adv-x="657" 
d="M329 -14q-61 0 -114.5 23t-93.5 63t-63 93.5t-23 114.5q0 60 23 113t63 93.5t93.5 63.5t114.5 23q60 0 113 -23t93.5 -63.5t63.5 -93.5t23 -113q0 -61 -23 -114.5t-63.5 -93.5t-93.5 -63t-113 -23zM152 124q7 62 55.5 101.5t121.5 39.5q49 0 87.5 -18.5t62.5 -50.5
t28 -72h-27q0 20 -9 40.5t-27.5 37.5t-47 28t-67.5 11t-67.5 -11t-47 -28t-27.5 -37.5t-9 -40.5h-26zM197 266v159h26v-159h-26zM329 12q55 0 103.5 21t85 57.5t57.5 85.5t21 104t-21 103.5t-57.5 85t-85 57.5t-103.5 21t-104 -21t-85.5 -57.5t-57.5 -85t-21 -103.5t21 -104
t57.5 -85.5t85.5 -57.5t104 -21zM434 266v159h26v-159h-26z" />
    <glyph glyph-name="colon_parenright.dlig" horiz-adv-x="657" 
d="M329 -14q-61 0 -114.5 23t-93.5 63t-63 93.5t-23 114.5q0 60 23 113t63 93.5t93.5 63.5t114.5 23q60 0 113 -23t93.5 -63.5t63.5 -93.5t23 -113q0 -61 -23 -114.5t-63.5 -93.5t-93.5 -63t-113 -23zM329 73q-63 0 -110 28.5t-73.5 77t-30.5 108.5h26q0 -3 2.5 -23.5
t12 -48t30 -55t55 -45.5t88.5 -18q56 0 91.5 19t55 47.5t28 57t10.5 47.5l2 19h26q-3 -63 -30 -111t-73.5 -75.5t-109.5 -27.5zM197 266v159h26v-159h-26zM329 12q55 0 103.5 21t85 57.5t57.5 85.5t21 104t-21 103.5t-57.5 85t-85 57.5t-103.5 21t-104 -21t-85.5 -57.5
t-57.5 -85t-21 -103.5t21 -104t57.5 -85.5t85.5 -57.5t104 -21zM434 266v159h26v-159h-26z" />
    <glyph glyph-name="periodcentered.case" horiz-adv-x="177" 
d="M84 256q-23 0 -31 11.5t-8 27.5q0 15 8 26.5t31 11.5t30.5 -11.5t7.5 -26.5q0 -16 -7.5 -27.5t-30.5 -11.5z" />
    <glyph glyph-name="bullet.case" horiz-adv-x="187" 
d="M84 256q-23 0 -31 11.5t-8 27.5q0 15 8 26.5t31 11.5t30.5 -11.5t7.5 -26.5q0 -16 -7.5 -27.5t-30.5 -11.5z" />
    <glyph glyph-name="hyphen.case" horiz-adv-x="317" 
d="M40 261v26h222v-26h-222z" />
    <glyph glyph-name="endash.case" horiz-adv-x="397" 
d="M40 261v26h302v-26h-302z" />
    <glyph glyph-name="emdash.case" horiz-adv-x="497" 
d="M40 261v26h402v-26h-402z" />
    <glyph glyph-name="parenleft.case" horiz-adv-x="255" 
d="M232 -149l-19 15.5t-46.5 47t-55.5 79t-47 112t-19 145.5q0 82 19 146.5t47 113t55.5 80t46.5 47.5l19 16l18 -22q-3 -3 -22.5 -17.5t-46.5 -43.5t-53 -73t-43.5 -105.5t-17.5 -141.5q0 -81 18.5 -143t45.5 -106t54.5 -72t46 -41l18.5 -13z" />
    <glyph glyph-name="parenright.case" horiz-adv-x="245" 
d="M13 -149l-18 24l18.5 13t46 41t54.5 72t45.5 106t18.5 143q0 80 -17.5 141.5t-43.5 105.5t-53 73t-46.5 43.5t-22.5 17.5l18 22l19 -16t47 -47.5t55.5 -80t46.5 -113t19 -146.5q0 -81 -19 -145.5t-46.5 -112t-55.5 -79t-47 -47z" />
    <glyph glyph-name="braceleft.case" horiz-adv-x="248" 
d="M228 -146q-55 -6 -86 2t-43.5 34.5t-12 75t7.5 122.5q6 57 2 88.5t-14 44.5t-23 16t-24 3v28q11 0 24 3t23 16t14 44.5t-2 88.5q-6 74 -6.5 122t11.5 74.5t43 34.5t86 2v-24q-55 12 -82.5 5t-35.5 -33.5t-4 -71.5t12 -107q8 -48 9 -80t-14 -52.5t-55 -36.5
q40 -15 55 -35.5t14 -52t-9 -79.5q-8 -63 -12 -107.5t4 -71t35.5 -34t82.5 4.5v-24z" />
    <glyph glyph-name="braceright.case" horiz-adv-x="263" 
d="M35 -146v24q55 -12 82.5 -4.5t35.5 34t4 71t-12 107.5q-8 48 -9 79.5t14 52t55 35.5q-40 16 -55 36.5t-13.5 52.5t8.5 80q8 62 12 107t-4 71.5t-35.5 33.5t-82.5 -5v24q56 6 86.5 -2t42.5 -34.5t11.5 -74.5t-6.5 -122q-6 -57 -2 -88.5t14 -44.5t23 -16t24 -3v-28
q-11 0 -24 -3t-23 -16t-14 -44.5t2 -88.5q7 -74 7.5 -122.5t-12 -75t-43 -34.5t-86.5 -2z" />
    <glyph glyph-name="bracketleft.case" horiz-adv-x="214" 
d="M35 -149v802h169v-25h-148v-753h148v-24h-169z" />
    <glyph glyph-name="bracketright.case" horiz-adv-x="233" 
d="M35 -149v24h157v753h-148v25h169v-802h-178z" />
    <glyph glyph-name="less_hyphen.dlig" horiz-adv-x="468" 
d="M35 212v26q42 0 65 14t33.5 33t13 34t2.5 16h25q0 -1 -1.5 -13.5t-8 -30.5t-21.5 -36.5t-41 -30.5t-67 -12zM433 212h-398v26h398v-26zM174 115h-25q0 2 -2.5 16.5t-13 33.5t-33.5 33t-65 14v26q41 0 67 -12.5t41 -30.5t21.5 -36.5t8 -31z" />
    <glyph glyph-name="less_three.dlig" horiz-adv-x="499" 
d="M241 0q-53 20 -94.5 57.5t-69 83t-39.5 92t-6 85t32 62.5t74 24q47 0 70.5 -31t31.5 -75q9 49 35 77.5t68 28.5q50 0 76.5 -24t32.5 -63t-6.5 -85.5t-40.5 -92t-69.5 -82.5t-94.5 -57zM241 26q46 18 82 50t61 72t36.5 80.5t8 74t-24.5 54.5t-61 21q-24 0 -40.5 -8.5
t-25.5 -25t-13 -39t-4 -50.5h-38q0 29 -4.5 51.5t-14 38.5t-25.5 24.5t-40 8.5q-39 0 -59 -21t-23 -55t9.5 -74.5t37 -80.5t60 -72t78.5 -49z" />
    <glyph glyph-name="plus.case" horiz-adv-x="350" 
d="M161 141v260h26v-260h-26zM45 260v26h260v-26h-260z" />
    <glyph glyph-name="minus.case" horiz-adv-x="350" 
d="M64 261v26h222v-26h-222z" />
    <glyph glyph-name="equal.case" horiz-adv-x="350" 
d="M44 345v24h262v-24h-262zM44 237v24h262v-24h-262z" />
    <glyph glyph-name="notequal.case" horiz-adv-x="350" 
d="M80 132l139 310h30l-139 -310h-30zM44 221v24h262v-24h-262zM44 329v24h262v-24h-262z" />
    <glyph glyph-name="greater.case" horiz-adv-x="350" 
d="M27 413l296 -140l-296 -142v32l258 110l-258 110v30z" />
    <glyph glyph-name="less.case" horiz-adv-x="350" 
d="M323 413v-30l-258 -110l258 -110v-32l-296 142z" />
    <glyph glyph-name="asciitilde.case" horiz-adv-x="350" 
d="M181 293q16 -25 33 -46.5t43 -21.5q27 0 38.5 19.5t12 49t-8.5 57.5h23q6 -19 7 -44t-5.5 -48t-23 -38t-43.5 -15q-23 0 -39 11.5t-28 29t-23 35.5zM167 282q-15 24 -31.5 43t-42.5 19q-30 0 -40 -21t-8.5 -50t7.5 -54h-23q-5 21 -6.5 45.5t4.5 47.5t21 37.5t43 14.5
q22 0 38 -10.5t28.5 -26.5t23.5 -34z" />
    <glyph glyph-name="uni030C.alt" 
d="M124 441l37 134h30l-51 -134h-16z" />
    <glyph glyph-name="uni03060301" 
d="M156 459q-47 0 -75 21t-28 55h22q0 -34 24 -42.5t56 -8.5t55.5 8.5t23.5 42.5h23q0 -34 -27 -55t-74 -21zM162 547h-16v6l57 106h30v-11z" />
    <glyph glyph-name="uni03060300" 
d="M156 459q-47 0 -75 21t-28 55h22q0 -34 24 -42.5t56 -8.5t55.5 8.5t23.5 42.5h23q0 -34 -27 -55t-74 -21zM159 547l-71 101v11h30l57 -106v-6h-16z" />
    <glyph glyph-name="uni03060309" 
d="M156 459q-47 0 -75 21t-28 55h22q0 -34 24 -42.5t56 -8.5t55.5 8.5t23.5 42.5h23q0 -34 -27 -55t-74 -21zM138 566v6q3 14 16.5 23.5t26 20t12.5 26.5q0 14 -9.5 21.5t-21.5 7.5q-11 0 -22.5 -7.5t-16.5 -24.5l-22 6q6 23 24 35t37 12q21 0 37.5 -11.5t16.5 -35.5
q0 -23 -13 -35t-25.5 -21t-12.5 -23h-27z" />
    <glyph glyph-name="uni03060303" 
d="M180 459q-47 0 -75 21t-28 55h22q0 -34 24 -42.5t56 -8.5t55.5 8.5t23.5 42.5h23q0 -34 -27 -55t-74 -21zM80 573q-1 17 1 30t8 23t16 15t25 5q21 0 33.5 -8t21 -18.5t18 -18.5t24.5 -8q18 0 21.5 14t3.5 40h25q1 -16 -1 -30t-8 -23.5t-16 -15t-25 -5.5q-20 0 -33 8
t-22 18.5t-18.5 18.5t-23.5 8q-17 0 -21.5 -14t-3.5 -39h-25z" />
    <glyph glyph-name="uni03020301" 
d="M85 461v6l100 98h14l101 -98v-6h-31l-76 82h-2l-75 -82h-31zM304 543h-16v6l57 106h30v-11z" />
    <glyph glyph-name="uni03020300" 
d="M265 543l-71 101v11h30l57 -106v-6h-16zM50 461v6l100 98h14l101 -98v-6h-31l-76 82h-2l-75 -82h-31z" />
    <glyph glyph-name="uni03020309" 
d="M50 461v6l100 98h14l101 -98v-6h-31l-76 82h-2l-75 -82h-31zM251 552v6q3 14 16.5 23.5t26 20t12.5 26.5q0 14 -9.5 21.5t-21.5 7.5q-11 0 -22.5 -7.5t-16.5 -24.5l-22 6q6 23 24 35t37 12q21 0 37.5 -11.5t16.5 -35.5q0 -23 -13 -35t-25.5 -21t-12.5 -23h-27z" />
    </font>
</defs>
</svg>
